<?xml version="1.0" standalone="no"?>
<!DOCTYPE svg PUBLIC "-//W3C//DTD SVG 1.1//EN" "http://www.w3.org/Graphics/SVG/1.1/DTD/svg11.dtd" >
<svg>
<metadata>
Created by FontForge 20090914 at Sun Mar  1 17:57:12 2015
 By www-data
Copyright (c) 2011 by Anna Giedrys (http://ancymonic.com), with Reserved Font Names "Signika".
</metadata>
<defs>
<font id="Signika-Regular" horiz-adv-x="530" >
  <font-face 
    font-family="Signika"
    font-weight="400"
    font-stretch="normal"
    units-per-em="1000"
    panose-1="2 1 0 3 2 6 0 0 0 4"
    ascent="800"
    descent="-200"
    x-height="493.999"
    cap-height="687"
    bbox="-126 -263.004 958.995 902.002"
    underline-thickness="50"
    underline-position="-100"
    unicode-range="U+000D-U+20AC"
  />
<missing-glyph horiz-adv-x="0" 
 />
    <glyph glyph-name=".notdef" horiz-adv-x="0" 
 />
    <glyph glyph-name="CR.001" unicode="&#xd;" horiz-adv-x="186" 
 />
    <glyph glyph-name="space" unicode=" " horiz-adv-x="220" 
 />
    <glyph glyph-name="exclam" unicode="!" horiz-adv-x="288" 
d="M102 194l-12.0029 466c26.667 20 63.334 30 110.001 30l7 -7l-25 -489c-5.33301 -2 -11.666 -3.33301 -18.999 -4s-14.666 -1 -21.999 -1s-14.333 0.333008 -21 1s-12.667 2 -18 4zM85.9971 97c13.333 8.66699 31.999 13.001 55.999 13.001
c10.667 0 20.167 -0.833008 28.5 -2.5s15.333 -3.66699 21 -6s9.83398 -8 12.501 -17s4 -20.5 4 -34.5c0 -13.333 -1.33301 -24.333 -4 -33s-6.83398 -14.334 -12.501 -17.001s-12.667 -4.83398 -21 -6.50098s-17.833 -2.5 -28.5 -2.5c-10 0 -19 0.666992 -27 2
s-15.167 3.33301 -21.5 6s-10.666 8.33398 -12.999 17.001s-3.5 20 -3.5 34c0 22 3 37.667 9 47z" />
    <glyph glyph-name="quotedbl" unicode="&#x22;" horiz-adv-x="390" 
d="M234 751c15.333 8.66699 32.334 13.001 51.001 13.001c19.333 0 36.666 -4.33301 51.999 -13c4.66699 -18 7 -32 7 -42c0 -8.66699 -2 -22.334 -6 -41.001c-5.33301 -26 -10 -52.167 -14 -78.5s-7.66699 -53.5 -11 -81.5c-6 -3.33301 -15.333 -5 -28 -5
c-5.33301 0 -10.333 0.333008 -15 1s-8.66699 2 -12 4c-7.33301 55.333 -14.333 100.5 -21 135.5s-10 57.167 -10 66.5s2.33301 23 7 41zM53.001 751.001c15.333 8.66699 32.332 13.001 50.999 13.001c19.333 0 36.666 -4.33301 51.999 -13c4.66699 -18 7 -32 7 -42
c0 -4.66699 -0.333008 -10.334 -1 -17.001s-2 -14.667 -4 -24c-5.33301 -26 -10.166 -52.167 -14.499 -78.5s-8.16602 -53.5 -11.499 -81.5c-3.33301 -2 -7.33301 -3.33301 -12 -4s-9.66699 -1 -15 -1s-10.5 0.333008 -15.5 1s-9.16699 2 -12.5 4
c-7.33301 55.333 -14.333 100.5 -21 135.5s-10 57.167 -10 66.5s2.33301 23 7 41z" />
    <glyph glyph-name="numbersign" unicode="#" horiz-adv-x="645" 
d="M428 498l32.002 141c11.333 4.66699 26.833 7 46.5 7s35.167 -2.33301 46.5 -7l-32 -141h98c4 -12 6 -26.5 6 -43.5s-2 -31.167 -6 -42.5h-117l-38 -172h107c4.66699 -11.333 7 -25.5 7 -42.5s-2.33301 -31.167 -7 -42.5h-126l-32 -142c-11.333 -4.66699 -27 -7 -47 -7
s-35.667 2.33301 -47 7l32 142h-125l-32 -142c-10.667 -4.66699 -26.334 -7 -47.001 -7s-36.334 2.33301 -47.001 7l32 142h-102c-4.66699 11.333 -7 25.5 -7 42.5s2.33301 31.167 7 42.5h121l39 172h-113c-4 11.333 -6 25.5 -6 42.5s2 31.5 6 43.5h132l32 141
c11.333 4.66699 26.833 7 46.5 7s35.167 -2.33301 46.5 -7l-32 -141h126zM283.002 412l-38 -172h125l39 172h-126z" />
    <glyph glyph-name="dollar" unicode="$" horiz-adv-x="499" 
d="M33 98c0.666992 14 5.00195 29.1631 13.002 45.4961s17.333 27.833 28 34.5c67.333 -37.333 127.666 -56 180.999 -56c28 0 51.167 5.83301 69.5 17.5s27.5 28.167 27.5 49.5c0 34.667 -24.333 61 -73 79l-100 36c-41.333 14.667 -72.166 34.334 -92.499 59.001
s-30.5 53.667 -30.5 87c0 40 13.167 74.167 39.5 102.5s62.5 46.166 108.5 53.499v82c8 2.66699 21.333 4 40 4c20 0 34.333 -1.33301 43 -4v-80c26.667 -2.66699 53 -7.66699 79 -15s51.667 -16.666 77 -27.999c0 -33.333 -12.667 -60.666 -38 -81.999
c-57.333 26 -109 39 -155 39c-26.667 0 -48 -5.83301 -64 -17.5s-24 -26.5 -24 -44.5c0 -17.333 5.5 -30.666 16.5 -39.999s28.5 -18 52.5 -26l97 -36c40 -15.333 72 -36.166 96 -62.499s36 -60.5 36 -102.5s-15.833 -77.333 -47.5 -106s-74.834 -45.334 -129.501 -50.001
v-76c-12 -2 -26.333 -3 -43 -3s-30 1 -40 3v78c-66.667 8.66699 -122.334 28.334 -167.001 59.001z" />
    <glyph glyph-name="percent" unicode="%" horiz-adv-x="907" 
d="M810 29c-27.333 -27.333 -63.333 -40.998 -108 -40.998c-52.667 0 -92.167 17.333 -118.5 52s-39.5 86 -39.5 154c0 69.333 13.667 120.666 41 153.999s66 50 116 50s88.833 -16.5 116.5 -49.5s41.5 -84.833 41.5 -155.5c0 -76.667 -16.333 -131.334 -49 -164.001z
M771 192.002c0 91.333 -23 137 -69 137s-69 -45.667 -69 -137c0 -90.667 23 -136 69 -136s69 45.333 69 136zM314 654.002c32.667 -32.667 49.001 -87.333 49.001 -164c0 -70.667 -13.833 -122.5 -41.5 -155.5s-66.5 -49.5 -116.5 -49.5s-88.667 16.5 -116 49.5
s-41 84.833 -41 155.5c0 70 13.667 121.667 41 155s66 50 116 50c45.333 0 81.666 -13.667 108.999 -41zM205.001 627.003c-45.333 0 -68 -45.667 -68 -137c0 -90.667 22.667 -136 68 -136c46 0 69 45.333 69 136c0 91.333 -23 137 -69 137zM214.001 0.00292969l377 683
c12 3.33301 26 5 42 5c27.333 0 47 -1.66699 59 -5l-376 -683c-12 -3.33301 -26.333 -5 -43 -5c-14 0 -25.833 0.333008 -35.5 1s-17.5 2 -23.5 4z" />
    <glyph glyph-name="ampersand" unicode="&#x26;" horiz-adv-x="623" 
d="M499 317l1 -165.999c0 -6 0.5 -21.5 1.5 -46.5s2.83301 -59.833 5.5 -104.5c-13.333 -4 -30 -6 -50 -6c-8.66699 0 -17 0.333008 -25 1s-15.333 2 -22 4l-8 41c-49.333 -35.333 -103.333 -53 -162 -53c-29.333 0 -55.833 4.83301 -79.5 14.5s-43.667 22.834 -60 39.501
s-28.833 36.167 -37.5 58.5s-13 46.166 -13 71.499s3.5 48.666 10.5 69.999s16.5 40.333 28.5 57s26 30.667 42 42s33 20 51 26c-30.667 10 -55.5 28.833 -74.5 56.5s-28.5 59.5 -28.5 95.5c0 26 5 49.833 15 71.5s24.167 40.5 42.5 56.5s40.5 28.333 66.5 37s55 13 87 13
c65.333 0 126 -9.66699 182 -29c0 -34 -9.33301 -61.333 -28 -82c-56 17.333 -102.333 26 -139 26c-38 0 -66.833 -9 -86.5 -27s-29.5 -43 -29.5 -75s10.167 -57 30.5 -75s51.5 -27 93.5 -27h184c40 0 71.667 5 95 15c9.33301 -11.333 14 -28 14 -50
c0 -36.667 -25 -55 -75 -55h-32zM398 254.001v36c0 10.667 0.333008 19.667 1 27h-96c-24 0 -44.833 -3.5 -62.5 -10.5s-32.5 -16.333 -44.5 -28s-21 -25.5 -27 -41.5s-9 -33 -9 -51c0 -36 9.5 -64.167 28.5 -84.5s44.833 -30.5 77.5 -30.5c49.333 0 93.333 15.667 132 47
v136z" />
    <glyph glyph-name="quotesingle" unicode="'" horiz-adv-x="211" 
d="M50 751c15.333 8.66699 32.334 13.001 51.001 13.001c19.333 0 36.666 -4.33301 51.999 -13c4.66699 -18 7 -32 7 -42c0 -8.66699 -2 -22.334 -6 -41.001c-5.33301 -26 -10 -52.167 -14 -78.5s-7.66699 -53.5 -11 -81.5c-6 -3.33301 -15.333 -5 -28 -5
c-5.33301 0 -10.333 0.333008 -15 1s-8.66699 2 -12 4c-7.33301 55.333 -14.333 100.5 -21 135.5s-10 57.167 -10 66.5s2.33301 23 7 41z" />
    <glyph glyph-name="parenleft" unicode="(" horiz-adv-x="332" 
d="M316 773c-94.667 -122.667 -142 -272.331 -142 -448.998c0 -176 47.333 -325.333 142 -448c-12 -28 -32.667 -46.667 -62 -56c-30 29.333 -56.833 63.666 -80.5 102.999s-43.667 81.333 -60 126s-29 90.667 -38 138s-13.5 93.333 -13.5 138s4.5 90.5 13.5 137.5
s21.667 92.833 38 137.5s36.333 86.667 60 126s50.5 73.666 80.5 102.999c29.333 -9.33301 50 -28 62 -56z" />
    <glyph glyph-name="parenright" unicode=")" horiz-adv-x="332" 
d="M16 -124c94.667 124.667 142.001 273.997 142.001 447.997c0 174.667 -47.333 324.334 -142 449.001c12 28 32.667 46.667 62 56c29.333 -29.333 55.833 -63.666 79.5 -102.999s43.667 -81.333 60 -126s29 -90.667 38 -138s13.5 -93.333 13.5 -138
s-4.33301 -90.5 -13 -137.5s-21.334 -92.833 -38.001 -137.5s-36.667 -86.667 -60 -126s-50 -73.666 -80 -102.999c-29.333 9.33301 -50 28 -62 56z" />
    <glyph glyph-name="asterisk" unicode="*" horiz-adv-x="504" 
d="M45 547c-1.33301 11.333 0.998047 26.165 6.99805 44.498s13 32.166 21 41.499l52 -18c22.667 -8 56.334 -25.667 101.001 -53c-12 46.667 -18 84.334 -18 113.001l-1 56c10.667 4.66699 25.5 7 44.5 7s34.167 -2.33301 45.5 -7l-1 -56
c0 -25.333 -6.33301 -62.666 -19 -111.999c45.333 26.667 79.333 44 102 52l53 17c7.33301 -8 14 -21 20 -39s8.66699 -33.333 8 -46l-54 -17c-25.333 -8 -63 -13.333 -113 -16c38 -31.333 65.333 -58.333 82 -81l32 -44c-5.33301 -10 -15.5 -20.667 -30.5 -32
s-28.833 -18.333 -41.5 -21l-32 45c-17.333 24.667 -34.333 58.667 -51 102c-16.667 -44 -33.667 -77.667 -51 -101l-32 -46c-12 3.33301 -25.5 10.5 -40.5 21.5s-25.833 21.5 -32.5 31.5l33 44c15.333 20.667 42.333 47.667 81 81
c-49.333 2.66699 -86.666 8.33398 -111.999 17.001z" />
    <glyph glyph-name="plus" unicode="+" 
d="M219 337l-1 48.9971v123c13.333 2.66699 29.166 4 47.499 4s33.833 -1.33301 46.5 -4v-123l-1 -49l49 1h114c2.66699 -13.333 4 -28.666 4 -45.999s-1.33301 -31.666 -4 -42.999h-114l-49 1l1 -48v-124c-12.667 -2.66699 -28.167 -4 -46.5 -4s-34.166 1.33301 -47.499 4
v124l1 48l-49 -1h-114c-2.66699 11.333 -4 25.833 -4 43.5s1.33301 32.834 4 45.501h114z" />
    <glyph glyph-name="comma" unicode="," horiz-adv-x="269" 
d="M197 104c7.33301 -20 11 -41.998 11 -65.998c0 -44 -12.667 -84 -38 -120s-62 -62.333 -110 -79c-9.33301 4.66699 -16.166 11.667 -20.499 21s-6.5 19.666 -6.5 30.999c23.333 10 42.666 24 57.999 42s23.666 37.333 24.999 58
c-12.667 3.33301 -22.667 6.16602 -30 8.49902s-11.833 6.33301 -13.5 12s-3 12 -4 19s-1.5 15.5 -1.5 25.5c0 15.333 1.16699 27.333 3.5 36s6.83301 14.167 13.5 16.5s14.334 4.33301 23.001 6s18.667 2.5 30 2.5c27.333 0 47.333 -4.33301 60 -13z" />
    <glyph glyph-name="hyphen" unicode="-" horiz-adv-x="350" 
d="M299 222l-248 0.00195312c-3.33301 11.333 -5 26.166 -5 44.499s1.66699 33.166 5 44.499h248c3.33301 -12 5 -27 5 -45s-1.66699 -32.667 -5 -44z" />
    <glyph glyph-name="period" unicode="." horiz-adv-x="263" 
d="M70 104c16.667 9.33301 37.332 14 61.999 14c11.333 0 21.333 -0.833008 30 -2.5s16.334 -4 23.001 -7s11.167 -9 13.5 -18s3.5 -20.833 3.5 -35.5c0 -14 -0.833008 -25.5 -2.5 -34.5s-5.5 -15.167 -11.5 -18.5s-13.333 -5.83301 -22 -7.5s-19.667 -2.5 -33 -2.5
c-12.667 0 -23.5 0.833008 -32.5 2.5s-16.833 3.83398 -23.5 6.50098s-11 8.66699 -13 18s-3 21.333 -3 36c0 21.333 3 37.666 9 48.999z" />
    <glyph glyph-name="slash" unicode="/" horiz-adv-x="422" 
d="M7 -77l316 838c33.333 -2 63.333 -13 90 -33l-316 -839c-33.333 2 -63.333 13.333 -90 34z" />
    <glyph glyph-name="zero" unicode="0" 
d="M119 603c38.667 38.667 87.333 57.999 146 57.999c72.667 0 127.334 -26.5 164.001 -79.5s55 -138.833 55 -257.5c0 -118 -17.833 -203.667 -53.5 -257s-90.834 -80 -165.501 -80c-75.333 0 -131.166 28 -167.499 84s-53.5 140.333 -51.5 253
c0 34 1.16699 64.833 3.5 92.5s6.16602 52.834 11.499 75.501s12.833 43 22.5 61s21.5 34.667 35.5 50zM192.999 103.999c15.333 -23.333 39.333 -35.0029 72 -35.0029c19.333 0 35.833 4.16699 49.5 12.5s25 22.333 34 42s15.667 45.834 20 78.501s6.5 73.334 6.5 122.001
s-2.16699 89.334 -6.5 122.001s-11 58.834 -20 78.501s-20.333 33.667 -34 42s-30.167 12.5 -49.5 12.5s-35.833 -4.16699 -49.5 -12.5s-25 -22.333 -34 -42s-15.667 -45.834 -20 -78.501s-6.5 -73.334 -6.5 -122.001c0 -113.333 12.667 -186.666 38 -219.999z" />
    <glyph glyph-name="one" unicode="1" 
d="M243 86l-0.999023 67v228c0 10.667 1.66699 51 5 121c-37.333 -46 -85.333 -82 -144 -108c-24 13.333 -38.667 34 -44 62c93.333 58 155.666 122 186.999 192c14 3.33301 30.167 5 48.5 5s34.833 -1.66699 49.5 -5v-495l-1 -67l59 1h69
c2.66699 -12.667 4 -27.167 4 -43.5s-1.33301 -30.833 -4 -43.5h-377c-2.66699 13.333 -4 28 -4 44s1.33301 30.333 4 43h92z" />
    <glyph glyph-name="two" unicode="2" 
d="M475 91c0 -28.667 -4.33105 -51 -12.998 -67s-27.334 -24 -56.001 -24h-311c-27.333 24 -41 45.667 -41 65c0 53.333 41.667 116.666 125 189.999l98 86c25.333 22 44.166 44.5 56.499 67.5s18.5 45.5 18.5 67.5c0 30 -9 54 -27 72s-41 27 -69 27
s-52.167 -8.83301 -72.5 -26.5s-36.166 -40.5 -47.499 -68.5c-14 0.666992 -28.333 4.16699 -43 10.5s-25.334 14.5 -32.001 24.5c7.33301 20.667 17.333 39.834 30 57.501s27.834 33 45.501 46s37.834 23.333 60.501 31s47.667 11.5 75 11.5
c26.667 0 51.5 -4.66699 74.5 -14s42.833 -22.166 59.5 -38.499s29.667 -35.333 39 -57s14 -44.834 14 -69.501c0 -25.333 -2.66699 -47.5 -8 -66.5s-13.333 -36.833 -24 -53.5s-23.834 -32.667 -39.501 -48s-33.5 -31.666 -53.5 -48.999l-77 -66
c-58.667 -50.667 -91.334 -89.334 -98.001 -116.001c26 2.66699 50 4.66699 72 6s42 2 60 2h184z" />
    <glyph glyph-name="three" unicode="3" 
d="M430 536l-104.997 -112.001c-4.66699 -4.66699 -10 -9.66699 -16 -15s-12.667 -10.666 -20 -15.999c26.667 -0.666992 51.5 -5.33398 74.5 -14.001s42.667 -21.167 59 -37.5s29.166 -36.5 38.499 -60.5s14 -52 14 -84s-6.16699 -61 -18.5 -87s-29 -48 -50 -66
s-45.167 -32 -72.5 -42s-56 -15 -86 -15c-81.333 0 -148 22 -200 66c7.33301 28 22.666 51 45.999 69c45.333 -33.333 89.666 -50 132.999 -50c44 0 78.333 11.5 103 34.5s37 54.5 37 94.5c0 39.333 -10.167 69.5 -30.5 90.5s-45.5 31.5 -75.5 31.5
c-28.667 0 -53.667 -5.66699 -75 -17c-18.667 8.66699 -32.667 27.334 -42 56.001l125 136c34 34 56.667 55.667 68 65l-3 5c-26 -6.66699 -64.667 -10 -116 -10h-141c-4 10.667 -6 24 -6 40c0 17.333 3 34 9 50h349c14.667 -27.333 22 -49.333 22 -66
c0 -14.667 -7 -30 -21 -46z" />
    <glyph glyph-name="four" unicode="4" 
d="M392 139l1 -53.9971v-85c-15.333 -2.66699 -32.5 -4 -51.5 -4s-35.5 1.33301 -49.5 4v85l1 54l-54 -2h-177c-16 26 -24 45.167 -24 57.5s6.66699 35.166 20 68.499l169 391c14.667 3.33301 32.167 3.16602 52.5 -0.500977s35.166 -9.83398 44.499 -18.501l-115 -266
c-29.333 -68 -52.666 -116.333 -69.999 -145l3 -4c42 3.33301 80 5 114 5h37c-0.666992 7.33301 -1 18 -1 32v78c0 24.667 6 44.167 18 58.5s28.667 21.5 50 21.5h28l5 -5v-132l-1 -53l46 1h53c2 -14 3 -28.5 3 -43.5s-2.33301 -29.833 -7 -44.5h-49z" />
    <glyph glyph-name="five" unicode="5" 
d="M439 648c4.66699 -13.333 7.00098 -27.667 7.00098 -43c0 -30.667 -15.333 -46 -46 -46h-211v-50l-7 -96c28.667 12 58 18 88 18c62 0 111.333 -18.5 148 -55.5s55 -90.833 55 -161.5c0 -34.667 -6.16699 -66 -18.5 -94s-28.833 -51.833 -49.5 -71.5
s-45 -34.834 -73 -45.501s-57.333 -16 -88 -16c-76.667 0 -139.334 21.333 -188.001 64c2 11.333 7.33301 23.833 16 37.5s18 24.167 28 31.5c24 -16.667 47.333 -28.834 70 -36.501s44 -11.5 64 -11.5c38.667 0 70.167 12.833 94.5 38.5s36.5 60.834 36.5 105.501
c0 23.333 -3.16699 43.333 -9.5 60s-15.666 30.334 -27.999 41.001s-25.5 18.5 -39.5 23.5s-29.667 7.5 -47 7.5c-18 0 -36.667 -3.33301 -56 -10s-38 -17.667 -56 -33c-9.33301 1.33301 -18.833 5.5 -28.5 12.5s-16.834 14.5 -21.501 22.5l14 301l7 7h339z" />
    <glyph glyph-name="six" unicode="6" 
d="M120 51c-12 15.333 -22.334 31.667 -31.001 49s-16 36.666 -22 57.999s-10.333 45.833 -13 73.5s-4 59.5 -4 95.5c0 52 5.66699 98.667 17 140s27.833 76.333 49.5 105s48.5 50.667 80.5 66s69 23 111 23c58.667 0 106.667 -10.667 144 -32
c-3.33301 -34 -15.666 -58.333 -36.999 -73c-32 14.667 -65.667 22 -101 22c-50.667 0 -88.667 -18.167 -114 -54.5s-39 -85.5 -41 -147.5c40.667 38 89 57 145 57c56.667 0 101 -18 133 -54s48 -89.333 48 -160c0 -34 -5.16699 -65.333 -15.5 -94
s-24.833 -53.167 -43.5 -73.5s-41.167 -36.166 -67.5 -47.499s-55.833 -17 -88.5 -17c-63.333 0 -113.333 21.333 -150 64zM276.999 346.001c-43.333 0 -82.668 -18.667 -118.001 -56v-16c0 -68 9.83301 -119.5 29.5 -154.5s48.834 -52.5 87.501 -52.5
c32 0 57.167 12.667 75.5 38s27.5 60 27.5 104c0 91.333 -34 137 -102 137z" />
    <glyph glyph-name="seven" unicode="7" 
d="M69 648l395.998 0.00195312c12.667 -25.333 19 -46 19 -62s-5.33301 -31.333 -16 -46l-34 -49c-50.667 -74.667 -89.667 -146.834 -117 -216.501s-45.666 -149.167 -54.999 -238.5l-3 -36c-15.333 -3.33301 -32.666 -5 -51.999 -5s-38 1.66699 -56 5l4 41
c16 157.333 70.333 302.666 163 435.999l11 16c13.333 20.667 32 44 56 70l-4 4c-27.333 -6 -78 -9 -152 -9h-164c-3.33301 12 -5 26 -5 42s3 32 9 48z" />
    <glyph glyph-name="eight" unicode="8" 
d="M44 163c0 38 10.999 72 32.999 102s50 54 84 72c-66.667 36 -100 87 -100 153c0 24.667 5.16699 47.5 15.5 68.5s24.833 39 43.5 54s40.334 26.833 65.001 35.5s51.667 13 81 13s56.333 -4.16699 81 -12.5s45.834 -20 63.501 -35s31.5 -32.667 41.5 -53
s15 -42.5 15 -66.5c0 -32 -9 -60.5 -27 -85.5s-41.333 -45.167 -70 -60.5c76.667 -41.333 115 -100.333 115 -177c0 -28 -5.83301 -53.333 -17.5 -76s-27.834 -42 -48.501 -58s-44.667 -28.333 -72 -37s-57 -13 -89 -13s-61.167 4 -87.5 12s-48.833 19.5 -67.5 34.5
s-33.167 33.333 -43.5 55s-15.5 46.5 -15.5 74.5zM236.999 305h-2c-56.667 -32 -85 -76.667 -85 -134c0 -34 10.667 -60.667 32 -80s48.333 -29 81 -29c34 0 61.667 10.167 83 30.5s32 46.833 32 79.5c0 60 -41.333 102.333 -124 127zM164.999 491
c0 -50.667 38.667 -86.666 116 -107.999l12 -5c47.333 27.333 71 64.666 71 111.999c0 28.667 -9.5 51.5 -28.5 68.5s-42.833 25.5 -71.5 25.5c-28 0 -51.5 -8.5 -70.5 -25.5s-28.5 -39.5 -28.5 -67.5z" />
    <glyph glyph-name="nine" unicode="9" 
d="M410 597c12 -15.333 22.334 -31.667 31.001 -49s15.834 -36.833 21.501 -58.5s10 -46.167 13 -73.5s4.5 -59 4.5 -95c0 -52 -5.66699 -98.667 -17 -140s-27.833 -76.333 -49.5 -105s-48.5 -50.667 -80.5 -66s-69 -23 -111 -23c-58.667 0 -106.667 10.667 -144 32
c3.33301 34 15.666 58.333 36.999 73c32 -14.667 65.667 -22 101 -22c50.667 0 88.667 18 114 54s39 85 41 147c-42.667 -37.333 -91.334 -56 -146.001 -56c-56 0 -100 18 -132 54s-48 89.333 -48 160c0 35.333 5.33301 67.333 16 96s25.5 53 44.5 73s41.5 35.5 67.5 46.5
s54.667 16.5 86 16.5c64 0 114.333 -21.333 151 -64zM253.001 301.999c42 0 81.333 18.333 118 55v17c0 68 -9.83301 119.5 -29.5 154.5s-49.167 52.5 -88.5 52.5c-32 0 -57 -12.667 -75 -38s-27 -60 -27 -104c0 -91.333 34 -137 102 -137z" />
    <glyph glyph-name="colon" unicode=":" horiz-adv-x="269" 
d="M73 104c17.333 9.33301 37.9971 14.002 61.9971 14.002c11.333 0 21.333 -0.833008 30 -2.5s16.334 -4 23.001 -7s11.167 -9 13.5 -18s3.5 -20.833 3.5 -35.5c0 -14 -1.16699 -25.833 -3.5 -35.5s-6.16602 -15.834 -11.499 -18.501s-12.333 -4.83398 -21 -6.50098
s-19.667 -2.5 -33 -2.5c-12.667 0 -23.5 0.833008 -32.5 2.5s-16.667 3.66699 -23 6s-10.666 8.33301 -12.999 18s-3.5 21.834 -3.5 36.501c0 21.333 3 37.666 9 48.999zM72.9971 433.002c17.333 9.33301 37.999 13.998 61.999 13.998c11.333 0 21.333 -0.833008 30 -2.5
s16.334 -4 23.001 -7s11.167 -9 13.5 -18s3.5 -20.833 3.5 -35.5c0 -14 -1 -25.667 -3 -35s-5.83301 -15.666 -11.5 -18.999s-12.834 -5.66602 -21.501 -6.99902s-19.667 -2 -33 -2c-12.667 0 -23.5 0.833008 -32.5 2.5s-16.667 3.66699 -23 6s-10.666 8.33301 -12.999 18
s-3.5 21.834 -3.5 36.501c0 21.333 3 37.666 9 48.999z" />
    <glyph glyph-name="semicolon" unicode=";" horiz-adv-x="273" 
d="M196 104c7.33301 -20 11.001 -41.998 11.001 -65.998c0 -44 -12.667 -84 -38 -120s-62 -62.333 -110 -79c-9.33301 4.66699 -16.166 11.667 -20.499 21s-6.5 19.666 -6.5 30.999c23.333 10 42.666 24 57.999 42s23.666 37.333 24.999 58
c-12.667 3.33301 -22.5 6.16602 -29.5 8.49902s-11.333 6.33301 -13 12s-3.16699 12 -4.5 19s-2 15.5 -2 25.5c0 15.333 1.33301 27.333 4 36s7.16699 14.167 13.5 16.5s13.833 4.33301 22.5 6s18.667 2.5 30 2.5c27.333 0 47.333 -4.33301 60 -13zM75.001 433.002
c16.667 9.33301 37.332 14.001 61.999 14.001c11.333 0 21.333 -0.5 30 -1.5s16 -3.66699 22 -8s10.5 -10.666 13.5 -18.999s4.5 -19.833 4.5 -34.5c0 -14 -1.16699 -25 -3.5 -33s-6.16602 -14.333 -11.499 -19s-12.333 -7.66699 -21 -9s-19.667 -2 -33 -2
c-12.667 0 -23.5 0.5 -32.5 1.5s-16.5 3.66699 -22.5 8s-10.333 10.666 -13 18.999s-4 19.833 -4 34.5c0 21.333 3 37.666 9 48.999z" />
    <glyph glyph-name="less" unicode="&#x3c;" 
d="M54 334l368.999 202c28.667 -17.333 44.667 -44.333 48 -81l-237 -125l-74 -34v-6l74 -34l237 -125c-1.33301 -16.667 -6.66602 -32.5 -15.999 -47.5s-20 -26.5 -32 -34.5l-369 202c-8.66699 31.333 -8.66699 59 0 83z" />
    <glyph glyph-name="equal" unicode="=" 
d="M474 154h-418c-2.66699 12.667 -4 27.5 -4 44.5s1.33301 31.833 4 44.5h418c2.66699 -12.667 4 -27.5 4 -44.5s-1.33301 -31.833 -4 -44.5zM474 347h-418c-2.66699 11.333 -4 25.666 -4 42.999s1.33301 32.666 4 45.999h418c2.66699 -13.333 4 -28.666 4 -45.999
s-1.33301 -31.666 -4 -42.999z" />
    <glyph glyph-name="greater" unicode="&#x3e;" 
d="M476 252l-368.999 -201.998c-28.667 17.333 -44.667 44.666 -48 81.999l237 124c12 6.66699 36.667 18 74 34v7c-37.333 16 -62 27.333 -74 34l-237 125c1.33301 16.667 6.66602 32.5 15.999 47.5s20 26.5 32 34.5l369 -203c8.66699 -30.667 8.66699 -58.334 0 -83.001z
" />
    <glyph glyph-name="question" unicode="?" horiz-adv-x="396" 
d="M11 645c60.667 34 121.999 51.001 183.999 51.001s109.5 -15.5 142.5 -46.5s49.5 -72.5 49.5 -124.5c-0.666992 -40 -11.5 -76.5 -32.5 -109.5s-53.5 -61.167 -97.5 -84.5l-63 -34l-8 -102c-12 -4 -25.333 -6 -40 -6c-14 0 -27 2 -39 6l-6 149l9 11l48 25
c40 20.667 69.833 42 89.5 64s29.5 45.667 29.5 71s-8.5 46.5 -25.5 63.5s-41.833 25.5 -74.5 25.5c-17.333 0 -36.666 -2.83301 -57.999 -8.5s-44.666 -14.834 -69.999 -27.501c-9.33301 8 -17.833 19.333 -25.5 34s-11.834 29 -12.501 43zM90.999 96.001
c13.333 8.66699 32.001 13 56.001 13c10 0 19.167 -0.833008 27.5 -2.5s15.833 -4 22.5 -7s11 -8.5 13 -16.5s3 -19.333 3 -34s-1.33301 -26.167 -4 -34.5s-6.5 -13.5 -11.5 -15.5s-12.167 -4 -21.5 -6s-19 -3 -29 -3c-10.667 0 -20 1 -28 3s-14.833 4 -20.5 6
s-9.83398 7.5 -12.501 16.5s-4 20.167 -4 33.5c0 20 3 35.667 9 47z" />
    <glyph glyph-name="at" unicode="@" horiz-adv-x="949" 
d="M663 412l-1.00098 -254.997c0 -46 14.333 -69 43 -69s52.5 16.5 71.5 49.5s28.5 84.833 28.5 155.5c0 46 -7.5 87.833 -22.5 125.5s-36.167 70 -63.5 97s-60.666 47.833 -99.999 62.5s-83.333 22 -132 22c-49.333 0 -94.333 -9.5 -135 -28.5s-75.667 -45.167 -105 -78.5
s-52.166 -72.833 -68.499 -118.5s-24.5 -95.167 -24.5 -148.5c0 -54 7.16699 -101.833 21.5 -143.5s34.5 -76.5 60.5 -104.5s57.333 -49.333 94 -64s77.667 -22 123 -22c76 0 143.667 12.333 203 37c18 -19.333 27 -43.666 27 -72.999
c-76.667 -29.333 -155.667 -44 -237 -44c-58.667 0 -112.334 9.16699 -161.001 27.5s-90.334 45 -125.001 80s-61.667 78 -81 129s-29 109.5 -29 175.5c0 65.333 11 125.666 33 180.999s52.5 103.166 91.5 143.499s85.167 71.833 138.5 94.5s111.333 34 174 34
c62 0 118.833 -9.16699 170.5 -27.5s96 -44.333 133 -78s65.667 -74.334 86 -122.001s30.5 -100.834 30.5 -159.501c0 -43.333 -5.5 -82.333 -16.5 -117s-25.667 -64.167 -44 -88.5s-39.833 -43 -64.5 -56s-51 -19.5 -79 -19.5c-55.333 0 -95.666 20.667 -120.999 62
c-41.333 -44 -87.333 -66 -138 -66c-50 0 -89.167 20 -117.5 60s-42.5 95.333 -42.5 166c0 34.667 4.5 67.167 13.5 97.5s22.333 56.833 40 79.5s39.334 40.5 65.001 53.5s55.167 19.5 88.5 19.5c65.333 0 122.666 -23 171.999 -69zM464.999 86.0029
c16.667 0 34.167 5.66895 52.5 17.002s33.833 25.333 46.5 42v231c-20 20 -46.333 30 -79 30c-16 0 -30.333 -4.33301 -43 -13s-23.167 -20.834 -31.5 -36.501s-14.833 -34.334 -19.5 -56.001s-7 -45.5 -7 -71.5c0 -95.333 27 -143 81 -143z" />
    <glyph glyph-name="A" unicode="A" horiz-adv-x="611" 
d="M429 166l-59.999 -1h-137l-58 1l-53 -167c-11.333 -2.66699 -26.333 -4 -45 -4s-36.334 2.33301 -53.001 7l-3 5l226 676c14 2.66699 34.333 4 61 4s46.667 -1.33301 60 -4l224 -676c-14 -9.33301 -32 -14 -54 -14s-37.667 4 -47 12s-17.333 22.667 -24 44zM201.001 252
l51 1h100c27.333 -0.666992 44 -1 50 -1l-46 145c-23.333 74.667 -41 135 -53 181h-5c-8 -36.667 -21 -85 -39 -145z" />
    <glyph glyph-name="B" unicode="B" horiz-adv-x="605" 
d="M318 -4l-221.001 2l-6 8v671l6 7l208 3c72.667 0 127.167 -15.667 163.5 -47s54.5 -76 54.5 -134c0 -32 -8.66699 -60.5 -26 -85.5s-40 -43.167 -68 -54.5c16.667 -5.33301 32.834 -13.666 48.501 -24.999s29.167 -24.666 40.5 -39.999s20.5 -32.333 27.5 -51
s10.5 -38.334 10.5 -59.001c0 -58.667 -19.667 -105.834 -59 -141.501s-99 -53.5 -179 -53.5zM195.999 76l120.999 1.00098c24.667 0 45.334 3.33301 62.001 10s30 15.5 40 26.5s17.167 23.667 21.5 38s6.5 29.833 6.5 46.5c0 14.667 -2.5 29.167 -7.5 43.5
s-13 27.166 -24 38.499s-25.167 20.5 -42.5 27.5s-38 10.5 -62 10.5h-115v-242zM195.998 607.001l0.000976562 -206.999h105c21.333 0 39.333 2.66699 54 8s26.5 12.666 35.5 21.999s15.5 20.333 19.5 33s6 26 6 40c0 68.667 -37.667 103 -113 103h-64.5
c-17.667 0 -31.834 0.333008 -42.501 1z" />
    <glyph glyph-name="C" unicode="C" horiz-adv-x="604" 
d="M460 447c0 21.333 -2.49902 41.834 -7.49902 61.501s-13.167 37 -24.5 52s-26 27 -44 36s-40 13.5 -66 13.5c-51.333 0 -90.333 -23 -117 -69s-40 -112 -40 -198c0 -85.333 14.333 -150.5 43 -195.5s71 -67.5 127 -67.5s114.333 25.333 175 76c27.333 -18 45 -41 53 -69
c-14.667 -14.667 -31.5 -28 -50.5 -40s-39 -22.5 -60 -31.5s-42.667 -16 -65 -21s-44.166 -7.5 -65.499 -7.5c-51.333 0 -94.333 9.83301 -129 29.5s-61.834 45.667 -81.501 78s-34.334 69.666 -44.001 111.999s-14.5 86.166 -14.5 131.499c0 60 7 112.333 21 157
s33.167 81.834 57.5 111.501s52.833 52 85.5 67s67.334 22.5 104.001 22.5c38 0 72.167 -5.33301 102.5 -16s56.333 -25 78 -43s38.167 -38.667 49.5 -62s17 -48 17 -74c0 -40 -20 -60 -60 -60c-12.667 0 -27.334 2 -44.001 6z" />
    <glyph glyph-name="D" unicode="D" horiz-adv-x="648" 
d="M491 46c-10 -8 -21.834 -15.1689 -35.501 -21.502s-28.5 -11.666 -44.5 -15.999s-32.167 -7.66602 -48.5 -9.99902s-31.833 -3.5 -46.5 -3.5c-15.333 0 -41 0.333008 -77 1s-83.333 1.66699 -142 3l-6 7v671l6 7c58 2 131.333 3 220 3c54 0 99 -9 135 -27
s64.833 -42.667 86.5 -74s36.834 -68.166 45.501 -110.499s13 -87.5 13 -135.5c0 -66.667 -7.16699 -123.834 -21.5 -171.501s-42.5 -88.5 -84.5 -122.5zM316.999 600.998h-120v-520h120c113.333 0 170 86.667 170 260c0 90.667 -14.167 156.667 -42.5 198
s-70.833 62 -127.5 62z" />
    <glyph glyph-name="E" unicode="E" horiz-adv-x="566" 
d="M195 138l-1 -51c20 2 42 3 66 3h259c0 -18 -1 -31.667 -3 -41c-6 -33.333 -28.667 -50 -68 -50h-297c-18.667 0 -33.5 5.83301 -44.5 17.5s-16.5 27.834 -16.5 48.501v612l7 6h402c2 -10.667 3 -24.834 3 -42.501s-2.66699 -33.5 -8 -47.5h-300l1 -65v-140l62 1h188
c3.33301 -12 5 -26.833 5 -44.5s-1.66699 -32.167 -5 -43.5h-188c-26 0 -46.667 0.333008 -62 1v-164z" />
    <glyph glyph-name="F" unicode="F" horiz-adv-x="522" 
d="M196 593l1 -118.002v-88c10 0.666992 24 1 42 1h201c3.33301 -11.333 5 -26.166 5 -44.499s-1.66699 -33.166 -5 -44.499h-243v-299c-15.333 -2.66699 -33.333 -4 -54 -4s-38 1.33301 -52 4v677l6 6h396c4 -12 6 -26 6 -42c0 -32.667 -20 -49 -60 -49h-147
c-45.333 0 -77.333 0.333008 -96 1z" />
    <glyph glyph-name="G" unicode="G" horiz-adv-x="643" 
d="M350 359l154 1.00098c50.667 0 76 -23.333 76 -70v-260c-74.667 -28.667 -157 -43 -247 -43c-50 0 -93.833 9.33301 -131.5 28s-67.5 44.334 -89.5 77.001c-42 64.667 -63 146.334 -63 245.001c0 61.333 8.33301 115.666 25 162.999s39.334 84.666 68.001 111.999
c58 56 125.667 84 203 84c90.667 0 168.334 -24.333 233.001 -73c-5.33301 -33.333 -22.333 -60 -51 -80c-54.667 41.333 -115.334 62 -182.001 62c-55.333 0 -100 -21.667 -134 -65s-51 -111.333 -51 -204c0 -174 63.667 -261 191 -261c47.333 0 89.666 5.66699 126.999 17
v112c0 29.333 0.666992 50.666 2 63.999h-88c-33.333 0 -50 15.667 -50 47c0 15.333 2.66699 30 8 44z" />
    <glyph glyph-name="H" unicode="H" horiz-adv-x="675" 
d="M478 397l-1.00195 74v212c14 2.66699 31.833 4 53.5 4s39.5 -1.33301 53.5 -4v-683c-15.333 -2.66699 -33.166 -4 -53.499 -4s-38.166 1.33301 -53.499 4v234l1 74l-56 -1h-169l-57 1l1 -74v-234c-14 -2.66699 -31.833 -4 -53.5 -4s-39.167 1.33301 -52.5 4v683
c13.333 2.66699 30.833 4 52.5 4s39.5 -1.33301 53.5 -4v-212l-1 -74l57 1h169z" />
    <glyph glyph-name="I" unicode="I" horiz-adv-x="294" 
d="M94 0v683c13.333 2.66699 30.833 4 52.5 4s39.5 -1.33301 53.5 -4v-683c-14 -2.66699 -31.833 -4 -53.5 -4s-39.167 1.33301 -52.5 4z" />
    <glyph glyph-name="J" unicode="J" horiz-adv-x="448" 
d="M50 112c36.667 -22 73.668 -33.001 111.001 -33.001s63.833 12 79.5 36s23.5 63.667 23.5 119v449c14 2.66699 31.667 4 53 4s39 -1.33301 53 -4v-434c0 -40.667 -2.66699 -75.167 -8 -103.5s-15 -54.833 -29 -79.5c-28 -50.667 -83.667 -76 -167 -76
c-58.667 0 -110.667 14 -156 42c5.33301 30.667 18.666 57.334 39.999 80.001z" />
    <glyph glyph-name="K" unicode="K" horiz-adv-x="596" 
d="M580 28c-14.667 -22.667 -38.666 -34 -71.999 -34c-19.333 0 -33.833 4.83301 -43.5 14.5s-18.5 26.167 -26.5 49.5l-54 147c-14 37.333 -30 63.666 -48 78.999s-40.5 23 -67.5 23s-50.833 -0.666992 -71.5 -2v-305c-14 -2.66699 -31.833 -4 -53.5 -4
s-39.167 1.33301 -52.5 4v683c13.333 2.66699 30.833 4 52.5 4s39.5 -1.33301 53.5 -4v-287l56 2c9.33301 0 16.5 2 21.5 6s10.5 11.333 16.5 22l128 217c9.33301 16 18.166 27.167 26.499 33.5s21.5 9.5 39.5 9.5s37.667 -1 59 -3l7 -9l-151 -256
c-12.667 -21.333 -26 -38 -40 -50c31.333 -6 55.833 -18.667 73.5 -38s33.5 -47.666 47.5 -84.999l54 -145c13.333 -34.667 28.333 -58.667 45 -72z" />
    <glyph glyph-name="L" unicode="L" horiz-adv-x="512" 
d="M286 92l199 -0.000976562c0 -14.667 -1 -28.667 -3 -42c-6 -34 -29 -51 -69 -51h-261c-18.667 0 -33.667 5.83301 -45 17.5s-17 27.834 -17 48.501v616l7 6h40c22 0 37.5 -5.33301 46.5 -16s13.5 -28 13.5 -52v-531c27.333 2.66699 57 4 89 4z" />
    <glyph glyph-name="M" unicode="M" horiz-adv-x="808" 
d="M74 1l53.0029 682.001c16 2.66699 39.333 4 70 4s53.667 -1.33301 69 -4l95 -313c17.333 -54 30.666 -107 39.999 -159h6c4.66699 32.667 17.667 85.667 39 159l95 313c17.333 2.66699 40.666 4 69.999 4s52.666 -1.33301 69.999 -4l53 -682
c-14.667 -4 -31.834 -6 -51.501 -6s-36.5 1.33301 -50.5 4l-23 366c-4 53.333 -6.66699 121 -8 203h-6l-137 -464c-21.333 -2.66699 -39.666 -4 -54.999 -4s-33 1.33301 -53 4l-137 464h-6c-3.33301 -100.667 -6 -168.334 -8 -203.001l-24 -366
c-13.333 -2.66699 -30 -4 -50 -4s-37 2 -51 6z" />
    <glyph glyph-name="N" unicode="N" horiz-adv-x="680" 
d="M583 687l5.99805 -5v-681c-18.667 -3.33301 -40 -5 -64 -5s-45.333 1.33301 -64 4l-213 419c-21.333 44.667 -42.333 91 -63 139l-4 -1c6 -103.333 9 -185 9 -245v-312c-16 -2.66699 -32.667 -4 -50 -4s-33.666 1.33301 -48.999 4v682c18.667 3.33301 39.834 5 63.501 5
s44.834 -1.33301 63.501 -4l211 -419l37 -81.5c15.333 -34.333 25 -55.5 29 -63.5l4 1c-5.33301 85.333 -8 169.333 -8 252v249c0 24 4.16699 41 12.5 51s23.166 15 44.499 15h35z" />
    <glyph glyph-name="O" unicode="O" horiz-adv-x="658" 
d="M192 521c-11.333 -28 -19.3379 -56.3301 -24.0049 -84.9971s-7 -58.334 -7 -89.001c0 -34 2.33301 -67.5 7 -100.5s13.334 -62.5 26.001 -88.5s30 -46.833 52 -62.5s50 -23.5 84 -23.5c36.667 0 65.834 9.16699 87.501 27.5s38.334 41.166 50.001 68.499
s19.334 56.666 23.001 87.999s5.5 60 5.5 86c0 26.667 -1.83301 55.667 -5.5 87s-11.167 60.5 -22.5 87.5s-28.166 49.5 -50.499 67.5s-51.833 27 -88.5 27c-34 0 -62.5 -8 -85.5 -24s-40.167 -38 -51.5 -66zM155.995 47.0029c-71.333 61.333 -107 159.332 -107 293.999
c0 54.667 6.16699 103.834 18.5 147.501s30.333 80.834 54 111.501s52.834 54.334 87.501 71.001s74.667 25 120 25c44.667 0 84.5 -8.16699 119.5 -24.5s64.167 -39.833 87.5 -70.5s41.166 -68 53.499 -112s18.5 -93.333 18.5 -148s-6.16699 -103.834 -18.5 -147.501
s-30.166 -80.834 -53.499 -111.501s-52.5 -54.167 -87.5 -70.5s-74.833 -24.5 -119.5 -24.5c-70.667 0 -128.334 20 -173.001 60z" />
    <glyph glyph-name="P" unicode="P" horiz-adv-x="568" 
d="M97 684l205.998 3.00195c34.667 0 66.167 -4.83301 94.5 -14.5s52.5 -23.834 72.5 -42.501s35.333 -41.834 46 -69.501s16 -59.5 16 -95.5s-5.5 -68 -16.5 -96s-26.5 -51.5 -46.5 -70.5s-44.167 -33.333 -72.5 -43s-59.5 -14.5 -93.5 -14.5h-106v-241
c-7.33301 -1.33301 -15.666 -2.33301 -24.999 -3s-19 -1 -29 -1c-9.33301 0 -18.666 0.333008 -27.999 1s-17.333 1.66699 -24 3v677zM196.998 325.002l101.999 0.996094c22.667 0 41.834 3.83301 57.501 11.5s28.167 17.834 37.5 30.501s16.166 27.334 20.499 44.001
s6.5 34 6.5 52c0 18.667 -2.16699 36.334 -6.5 53.001s-11.166 31.334 -20.499 44.001s-21.833 22.667 -37.5 30s-34.5 11 -56.5 11h-60.5c-17 0 -31.167 0.333008 -42.5 1v-278z" />
    <glyph glyph-name="Q" unicode="Q" horiz-adv-x="658" 
d="M453 -101l-113.997 88.002h-10c-91.333 0 -160.833 31 -208.5 93s-71.5 149.333 -71.5 262c0 54.667 5.83301 104 17.5 148s29 81.167 52 111.5s51.833 53.666 86.5 69.999s74.667 24.5 120 24.5c46 0 86.167 -8.16699 120.5 -24.5s63.166 -39.5 86.499 -69.5
s40.833 -66.5 52.5 -109.5s17.5 -91.167 17.5 -144.5c0 -42 -3.33301 -81 -10 -117s-16.334 -68 -29.001 -96s-28.334 -51.833 -47.001 -71.5s-39.667 -33.834 -63 -42.501l22 -16c14.667 -11.333 27.834 -20.5 39.501 -27.5s22.5 -12.5 32.5 -16.5s19.333 -6.83301 28 -8.5
s17.667 -2.5 27 -2.5c-1.33301 -23.333 -9.33301 -42.333 -24 -57s-32.667 -22 -54 -22c-22.667 0 -46.334 9.33301 -71.001 28zM325.003 611.002c-110 0 -165 -89.667 -165 -269c0 -178.667 55 -268 165 -268c110.667 0 166 89.333 166 268c0 179.333 -55.333 269 -166 269
z" />
    <glyph glyph-name="R" unicode="R" horiz-adv-x="600" 
d="M97 684l215.001 2.99902c70.667 0 126.167 -17.833 166.5 -53.5s60.5 -86.167 60.5 -151.5c0 -44.667 -11.833 -83.167 -35.5 -115.5s-54.5 -54.5 -92.5 -66.5c31.333 -11.333 55 -39.666 71 -84.999l44 -117c12.667 -34.667 27.667 -58.667 45 -72
c-14.667 -22 -38.667 -33 -72 -33c-18.667 0 -32.834 5 -42.501 15s-18.834 26.667 -27.501 50l-50 135c-10 26.667 -22.167 47 -36.5 61s-35.833 21 -64.5 21h-82v-275c-14 -2.66699 -31.667 -4 -53 -4s-38.666 1.33301 -51.999 4v677zM196.001 603.999v-244.001
c52 1.33301 89 2 111 2c44.667 0 76.167 11.333 94.5 34s27.5 51.334 27.5 86.001c0 80.667 -40.667 121 -122 121c-51.333 0 -88.333 0.333008 -111 1z" />
    <glyph glyph-name="S" unicode="S" horiz-adv-x="556" 
d="M30 62c2.66699 32.667 17.6689 60 45.002 82c69.333 -45.333 136.333 -68 201 -68c39.333 0 70.5 8.66699 93.5 26s34.5 40 34.5 68c0 46 -30.333 82 -91 108l-118 51c-91.333 39.333 -137 97 -137 173c0 27.333 5.66699 52.833 17 76.5s27 44.5 47 62.5
s44.167 31.667 72.5 41s59.5 14 93.5 14c70 0 139.333 -17.333 208 -52c-0.666992 -32 -13.667 -59.667 -39 -83c-64 31.333 -121 47 -171 47c-36 0 -65 -8.83301 -87 -26.5s-33 -38.5 -33 -62.5c0 -24.667 6.83301 -43.834 20.5 -57.501s34.5 -26.167 62.5 -37.5l116 -50
c50 -21.333 87.5 -47.166 112.5 -77.499s37.5 -66.5 37.5 -108.5c0 -60 -20.833 -108.5 -62.5 -145.5s-104.834 -55.5 -189.501 -55.5s-162.334 25 -233.001 75z" />
    <glyph glyph-name="T" unicode="T" horiz-adv-x="492" 
d="M358 593l-58.002 1v-594c-15.333 -2.66699 -33.166 -4 -53.499 -4s-38.166 1.33301 -53.499 4v520l1 74h-1l-57 -1h-119c-2.66699 14 -4 29 -4 45s1.33301 31 4 45h460c4 -16 6 -31.333 6 -46c0 -29.333 -20 -44 -60 -44h-65z" />
    <glyph glyph-name="U" unicode="U" horiz-adv-x="669" 
d="M587 683l0.00195312 -443c0 -81.333 -22.667 -143.833 -68 -187.5s-107 -65.5 -185 -65.5c-77.333 0 -138.666 21.667 -183.999 65s-68 106 -68 188v441l6 6h41c21.333 0 36.5 -5.33301 45.5 -16s13.5 -28 13.5 -52v-379c0 -54.667 12.333 -96.167 37 -124.5
s61 -42.5 109 -42.5c97.333 0 146 55.667 146 167v443c7.33301 1.33301 15.666 2.33301 24.999 3s18.666 1 27.999 1c10 0 19.667 -0.333008 29 -1s17.666 -1.66699 24.999 -3z" />
    <glyph glyph-name="V" unicode="V" horiz-adv-x="575" 
d="M300 95l158.998 588c12.667 2.66699 28.334 4 47.001 4s34.334 -2 47.001 -6l5 -8l-198 -674c-34.667 -2.66699 -62 -4 -82 -4s-35.833 3.5 -47.5 10.5s-20.5 20.833 -26.5 41.5l-184 627c24 10.667 46 16 66 16c28.667 0 48 -17.333 58 -52l103 -361
c16 -56.667 30.667 -114 44 -172c2 -6.66699 5 -10 9 -10z" />
    <glyph glyph-name="W" unicode="W" horiz-adv-x="850" 
d="M156 48l-126.002 628.998c19.333 8.66699 38.333 13 57 13s32.334 -4.16699 41.001 -12.5s14.667 -23.166 18 -44.499l63 -340c14.667 -84 25.334 -148.333 32.001 -193c0.666992 -8 3.66699 -12 9 -12l109 581c22 3.33301 45.667 5 71 5s47.333 -1.66699 66 -5l100 -569
c1.33301 -8 4.33301 -12 9 -12c6.66699 46.667 18.667 115.334 36 206.001l77 389c13.333 2.66699 29.333 4 48 4s35.667 -2 51 -6l5 -7l-143 -673c-26 -4 -53 -6 -81 -6s-47.333 3.5 -58 10.5s-18 20.833 -22 41.5l-48 268c-16.667 98 -30 180.333 -40 247h-7
c-13.333 -84 -28 -166.333 -44 -247l-61 -315c-28.667 -3.33301 -56 -5 -82 -5s-44.833 3.5 -56.5 10.5s-19.5 21.167 -23.5 42.5z" />
    <glyph glyph-name="X" unicode="X" horiz-adv-x="587" 
d="M445 683c11.333 3.33301 27.167 5 47.5 5s37.833 -3.33301 52.5 -10l3 -7l-192 -310l213 -345c-22.667 -15.333 -46.834 -23 -72.501 -23s-47.5 14.333 -65.5 43l-145 234l-163 -270c-11.333 -3.33301 -27.5 -5 -48.5 -5s-38.833 3.33301 -53.5 10l-3 7l214 345l-190 310
c22.667 15.333 46.834 23 72.501 23s47.167 -14 64.5 -42l123 -200z" />
    <glyph glyph-name="Y" unicode="Y" horiz-adv-x="503" 
d="M303 454l90.9971 229c12.667 3.33301 28 5 46 5s35 -2.66699 51 -8l5 -7l-190 -454v-219c-15.333 -2.66699 -33.666 -4 -54.999 -4s-38.666 1.33301 -51.999 4v221l-190 450c22.667 12.667 43 19 61 19s31.333 -3.5 40 -10.5s16.334 -18.833 23.001 -35.5l79 -192
c13.333 -33.333 27.333 -75 42 -125h5c7.33301 26.667 22 69 44 127z" />
    <glyph glyph-name="Z" unicode="Z" horiz-adv-x="562" 
d="M62 113l252.001 379c6.66699 10 33 45.333 79 106l-3 3c-29.333 -5.33301 -81.333 -8 -156 -8h-161c-2.66699 10.667 -4 23.5 -4 38.5s2.66699 32.167 8 51.5h412c10 -34 15 -57.5 15 -70.5s-4.66699 -26.5 -14 -40.5l-251 -376c-15.333 -23.333 -41.333 -59 -78 -107
l3 -3c42 4 82 6 120 6h104c53.333 0 92.666 6.33301 117.999 19c6 -18 9 -35.333 9 -52c0 -39.333 -24.667 -59 -74 -59h-380c-8.66699 33.333 -13 57 -13 71s4.66699 28 14 42z" />
    <glyph glyph-name="bracketleft" unicode="[" horiz-adv-x="344" 
d="M309 -142l-203 -7l-7 6v952l7 6l203 -7c2.66699 -8 4 -18 4 -30s-2.66699 -27 -8 -45l-102 -3v-794l102 -3c5.33301 -18 8 -33 8 -45s-1.33301 -22 -4 -30z" />
    <glyph glyph-name="backslash" unicode="\" horiz-adv-x="422" 
d="M326 -111l-316 838.999c26 20 55.667 31 89 33l316 -838c-25.333 -19.333 -55 -30.666 -89 -33.999z" />
    <glyph glyph-name="bracketright" unicode="]" horiz-adv-x="344" 
d="M237 -149l-202 7c-2.66699 8 -4 18 -4 30s2.66699 27 8 45l102 3v794l-102 3c-5.33301 18 -8 33 -8 45s1.33301 22 4 30l202 7l7 -6v-952z" />
    <glyph glyph-name="asciicircum" unicode="^" 
d="M321 648l165 -342c-12 -3.33301 -28.5 -5 -49.5 -5s-38.5 1.66699 -52.5 5l-82 176l-34 84h-6l-34 -84l-82 -176c-14 -3.33301 -31.5 -5 -52.5 -5s-37.5 1.66699 -49.5 5l165 342c13.333 3.33301 32 5 56 5s42.667 -1.66699 56 -5z" />
    <glyph glyph-name="underscore" unicode="_" 
d="M530 -155l-530 -0.000976562c-3.33301 10 -5 23.333 -5 40s1.66699 30.334 5 41.001h530c2.66699 -11.333 4 -25 4 -41s-1.33301 -29.333 -4 -40z" />
    <glyph glyph-name="grave" unicode="`" horiz-adv-x="398" 
d="M136 739l144 -159.001c-9.33301 -22 -24.333 -36 -45 -42l-171 133c5.33301 14.667 14.833 28.334 28.5 41.001s28.167 21.667 43.5 27z" />
    <glyph glyph-name="a" unicode="a" horiz-adv-x="507" 
d="M461 46c-8 -24 -21 -41.668 -39 -53.001c-39.333 7.33301 -66 28 -80 62c-47.333 -45.333 -96 -68 -146 -68c-25.333 0 -47.5 4 -66.5 12s-35 18.833 -48 32.5s-22.667 29.334 -29 47.001s-9.5 36.167 -9.5 55.5c0 54.667 17.5 96 52.5 124s81.5 42 139.5 42
c16.667 0 33 -0.5 49 -1.5s31.667 -2.83301 47 -5.5v39c0 59.333 -27.333 89 -82 89c-38 0 -90.333 -12.667 -157 -38c-19.333 16.667 -29.333 41.667 -30 75c68 30.667 137 46 207 46c52 0 92.333 -13.833 121 -41.5s43 -69.5 43 -125.5v-205c0 -41.333 9.33301 -70 28 -86
zM213 68.999c42.667 0 82 20 118 60v95c-13.333 1.33301 -27.333 2.33301 -42 3s-30 1 -46 1c-30.667 0 -54.5 -7.5 -71.5 -22.5s-25.5 -34.833 -25.5 -59.5c0 -24 6 -42.833 18 -56.5s28.333 -20.5 49 -20.5z" />
    <glyph glyph-name="b" unicode="b" horiz-adv-x="528" 
d="M78 25v704.001l6 6h39c20.667 0 35.167 -5.16699 43.5 -15.5s12.5 -27.166 12.5 -50.499v-218c40 34 86 51 138 51c53.333 0 94.5 -23 123.5 -69s43.5 -110 43.5 -192c0 -38.667 -5.66699 -73.334 -17 -104.001s-27 -56.834 -47 -78.501s-43.5 -38.167 -70.5 -49.5
s-56.167 -17 -87.5 -17c-64 0 -125.333 11 -184 33zM288 416.001c-40 0 -76.333 -18.999 -109 -56.999v-278c24.667 -8 53.334 -12 86.001 -12c33.333 0 60.666 15.667 81.999 47s32 75.666 32 132.999c0 58 -8.16699 100.333 -24.5 127s-38.5 40 -66.5 40z" />
    <glyph glyph-name="c" unicode="c" horiz-adv-x="471" 
d="M339 303l-0.000976562 11.001c0 75.333 -29.333 113 -88 113c-32 0 -56.667 -15.333 -74 -46s-26 -76.334 -26 -137.001c0 -114.667 37.667 -172 113 -172c37.333 0 77.666 16.667 120.999 50c9.33301 -5.33301 18.333 -14 27 -26s14.334 -23.667 17.001 -35
c-49.333 -49.333 -109 -74 -179 -74c-35.333 0 -65.833 6.5 -91.5 19.5s-47 31.167 -64 54.5s-29.667 51.333 -38 84s-12.5 68.667 -12.5 108c0 40.667 5.66699 76.834 17 108.501s26.5 58.167 45.5 79.5s41 37.666 66 48.999s51.5 17 79.5 17
c28.667 0 54.167 -4.33301 76.5 -13s41.333 -20 57 -34s27.667 -30.167 36 -48.5s12.5 -36.833 12.5 -55.5c0 -38 -17.333 -57 -52 -57c-17.333 0 -31.666 1.33301 -42.999 4z" />
    <glyph glyph-name="d" unicode="d" 
d="M236 502c36 0 73.6689 -10.999 113.002 -32.999v260l7 6h39c20.667 0 35 -5 43 -15s12 -27 12 -51v-528c0 -46.667 9.33301 -78.334 28 -95.001c-2.66699 -9.33301 -7.66699 -19.333 -15 -30s-15 -18.334 -23 -23.001c-38 7.33301 -64.333 28 -79 62
c-39.333 -45.333 -87.333 -68 -144 -68s-99.667 22.833 -129 68.5s-44 109.167 -44 190.5c0 40.667 5.16699 76.834 15.5 108.501s24.166 58.5 41.499 80.5s37.666 38.667 60.999 50s48 17 74 17zM240.002 73.001c43.333 0 79.666 21 108.999 63v248
c-37.333 24 -69.666 36 -96.999 36c-30 0 -54.667 -15 -74 -45s-29 -74.333 -29 -133c0 -58 8.66699 -100.667 26 -128s39 -41 65 -41z" />
    <glyph glyph-name="e" unicode="e" horiz-adv-x="500" 
d="M444 214l-294 0.000976562c2 -46 11.833 -81.333 29.5 -106s47.5 -37 89.5 -37c20 0 41.5 3 64.5 9s46.833 15.667 71.5 29c16.667 -15.333 27.667 -37.333 33 -66c-53.333 -37.333 -116 -56 -188 -56c-38 0 -70 6.66699 -96 20s-47.167 31.666 -63.5 54.999
s-28.166 51.166 -35.499 83.499s-11 67.166 -11 104.499c0 36.667 4.66699 70.834 14 102.501s22.666 58.834 39.999 81.501s38.833 40.5 64.5 53.5s54.5 19.5 86.5 19.5s60.5 -5.33301 85.5 -16s46.167 -25.5 63.5 -44.5s30.5 -41.667 39.5 -68s13.5 -54.833 13.5 -85.5
c0 -13.333 -0.5 -26.5 -1.5 -39.5s-2.83301 -26.167 -5.5 -39.5zM252 430.001c-63.333 0 -97.333 -47 -102 -141h202v13c0 38 -8.16699 68.833 -24.5 92.5s-41.5 35.5 -75.5 35.5z" />
    <glyph glyph-name="f" unicode="f" horiz-adv-x="333" 
d="M101 0l0.000976562 419.997l-86 -2c-1.33301 5.33301 -2.33301 11.333 -3 18s-1 13.334 -1 20.001c0 15.333 1.33301 28.333 4 39l81 -1c-4 40.667 -6 70.334 -6 89.001c0 22.667 3.5 43.5 10.5 62.5s17.167 35.5 30.5 49.5s29.333 24.833 48 32.5s39.667 11.5 63 11.5
c46.667 0 90 -7.66699 130 -23c0 -30 -8 -53.333 -24 -70c-15.333 4.66699 -29.833 8.33398 -43.5 11.001s-26.167 4 -37.5 4c-28 0 -48.167 -7.5 -60.5 -22.5s-18.5 -37.5 -18.5 -67.5c0 -11.333 0.666992 -23.333 2 -36s3 -26.667 5 -42l141 2
c1.33301 -6 2.33301 -12.167 3 -18.5s1 -13.166 1 -20.499c0 -6.66699 -0.333008 -13.334 -1 -20.001s-1.66699 -12.667 -3 -18l-134 2v-420c-7.33301 -1.33301 -15.333 -2.33301 -24 -3s-17.667 -1 -27 -1s-18.333 0.333008 -27 1s-16.334 1.66699 -23.001 3z" />
    <glyph glyph-name="g" unicode="g" horiz-adv-x="528" 
d="M372 455c14.667 23.333 37.668 38.667 69.001 46c8 -5.33301 15.833 -13.333 23.5 -24s12.5 -20.334 14.5 -29.001c-18.667 -18 -28 -49.667 -28 -95v-296c0 -51.333 -4.16699 -94.666 -12.5 -129.999s-21.166 -63.833 -38.499 -85.5s-39.333 -37.334 -66 -47.001
s-58.667 -14.5 -96 -14.5c-59.333 0 -117 11 -173 33c0.666992 32 9.66699 58 27 78c42 -20.667 87.333 -31 136 -31c47.333 0 79.666 12.167 96.999 36.5s26 58.5 26 102.5v46c-39.333 -36 -85.666 -54 -138.999 -54c-52.667 0 -93.834 23 -123.501 69
s-44.5 109.333 -44.5 190c0 40.667 5 76.834 15 108.501s24 58.5 42 80.5s38.5 38.833 61.5 50.5s47.5 17.5 73.5 17.5c53.333 0 98.666 -17.333 135.999 -52zM351.001 136.001v243c-33.333 30 -66 45 -98 45s-57.333 -15 -76 -45s-28 -74.333 -28 -133
c0 -58 8.33301 -100.667 25 -128s38.334 -41 65.001 -41c41.333 0 78.666 19.667 111.999 59z" />
    <glyph glyph-name="h" unicode="h" horiz-adv-x="544" 
d="M470 338v-232.001c0 -40 5.33301 -70.333 16 -91c-18.667 -14.667 -39 -22 -61 -22s-37.167 5.5 -45.5 16.5s-12.5 27.5 -12.5 49.5v254c0 34.667 -4.5 59.334 -13.5 74.001s-24.5 22 -46.5 22s-44.5 -5.66699 -67.5 -17s-43.167 -26.333 -60.5 -45v-347
c-6.66699 -1.33301 -14.334 -2.33301 -23.001 -3s-17.667 -1 -27 -1s-18.5 0.333008 -27.5 1s-16.833 1.66699 -23.5 3v729l6 6h40c20.667 0 35 -5 43 -15s12 -27 12 -51v-233c48.667 44 101.334 66 158.001 66c44.667 0 78 -14.833 100 -44.5s33 -69.5 33 -119.5z" />
    <glyph glyph-name="i" unicode="i" horiz-adv-x="271" 
d="M195 408l0.00292969 -408c-12.667 -2.66699 -29.834 -4 -51.501 -4s-38.834 1.33301 -51.501 4v366c0 18.667 -3.33301 32 -10 40s-18 12 -34 12h-11c-3.33301 14.667 -5 27 -5 37s1.66699 22.667 5 38c22 2.66699 43 4 63 4h14c25.333 0 45.166 -8 59.499 -24
s21.5 -37.667 21.5 -65zM70.0029 587c-6 12 -9 26.668 -9 44.001c0 27.333 5 43.5 15 48.5s26.667 7.83301 50 8.5c26.667 -0.666992 43.667 -4 51 -10s11.333 -21.667 12 -47c-0.666992 -24 -4.66699 -39.333 -12 -46s-24.333 -10.334 -51 -11.001
c-26 0 -44.667 4.33301 -56 13z" />
    <glyph glyph-name="j" unicode="j" horiz-adv-x="278" 
d="M201 408l0.00195312 -389.998c0 -46.667 -3 -84.167 -9 -112.5s-15 -50.833 -27 -67.5s-27 -28.834 -45 -36.501s-39 -14.5 -63 -20.5c-17.333 16 -27.333 37 -30 63c14 6.66699 25.667 13.667 35 21s16.666 15.833 21.999 25.5s9.16602 20.667 11.499 33
s3.5 27.166 3.5 44.499v398c0 18.667 -3.16699 32 -9.5 40s-17.5 12 -33.5 12h-20c-2 7.33301 -3.33301 13.833 -4 19.5s-1 11.5 -1 17.5c0 5.33301 0.333008 11 1 17s2 13 4 21c12 1.33301 24 2.33301 36 3s24.333 1 37 1h13c24.667 0 44 -7.83301 58 -23.5
s21 -37.5 21 -65.5zM76.002 587.002c-6 12 -9 26.668 -9 44.001c0 24 3.5 39.167 10.5 45.5s25.167 10.166 54.5 11.499c22.667 -2 38.334 -4.5 47.001 -7.5s14 -19.5 16 -49.5c-2 -28 -6.33301 -44 -13 -48s-23.334 -7 -50.001 -9c-26 0 -44.667 4.33301 -56 13z" />
    <glyph glyph-name="k" unicode="k" horiz-adv-x="502" 
d="M403 186l34.001 -83c15.333 -40.667 31.333 -66.667 48 -78c-18.667 -21.333 -41.667 -32 -69 -32c-17.333 0 -30.666 4.5 -39.999 13.5s-18 23.833 -26 44.5l-40 98c-10.667 26 -21.834 43.5 -33.501 52.5s-25.5 13.5 -41.5 13.5s-34.667 -0.666992 -56 -2v-213
c-12.667 -2.66699 -29.334 -4 -50.001 -4s-37.667 1.33301 -51 4v729l6 6h40c20.667 0 35 -5 43 -15s12 -27 12 -51v-370l34 2c10.667 0 18.667 4.66699 24 14l88 138c16.667 29.333 38 44 64 44s45.333 -0.333008 58 -1l6 -8l-109 -173c-10 -16 -21 -29 -33 -39
c41.333 -10.667 72 -40.667 92 -90z" />
    <glyph glyph-name="l" unicode="l" horiz-adv-x="294" 
d="M217 77h37c6 -16.667 9 -31.334 9 -44.001s-1 -22.667 -3 -30c-26.667 -4.66699 -55 -7 -85 -7c-66 0 -99 34.333 -99 103v630l7 6h39c20.667 0 35.167 -5.16699 43.5 -15.5s12.5 -27.166 12.5 -50.499v-547c0 -30 13 -45 39 -45z" />
    <glyph glyph-name="m" unicode="m" horiz-adv-x="797" 
d="M349 313c0 34 -4.82812 58.499 -14.4951 73.499s-24.834 22.5 -45.501 22.5c-36 0 -72 -20.333 -108 -61v-348c-11.333 -2.66699 -28.333 -4 -51 -4c-10.667 0 -20.334 0.333008 -29.001 1s-16.334 1.66699 -23.001 3v491l6 7h39c36 0 55 -21 57 -63
c47.333 45.333 96.333 68 147 68c51.333 0 87.666 -24.667 108.999 -74c54.667 49.333 107.667 74 159 74c42 0 74 -14.667 96 -44s33 -67 33 -113v-240c0 -41.333 5.33301 -71.666 16 -90.999c-18.667 -14.667 -40.334 -22 -65.001 -22c-36.667 0 -55 22 -55 66v255
c0 34 -4.83301 58.333 -14.5 73s-24.834 22 -45.501 22c-36 0 -72 -20.333 -108 -61v-348c-6.66699 -1.33301 -14.5 -2.33301 -23.5 -3s-18.5 -1 -28.5 -1c-9.33301 0 -18.666 0.333008 -27.999 1s-17 1.66699 -23 3v313z" />
    <glyph glyph-name="n" unicode="n" horiz-adv-x="546" 
d="M472 339l0.000976562 -233.002c0 -39.333 5.66699 -69.666 17 -90.999c-17.333 -14.667 -37.666 -22 -60.999 -22c-22.667 0 -38.167 5.5 -46.5 16.5s-12.5 27.5 -12.5 49.5v254c0 34.667 -4.5 59.334 -13.5 74.001s-24.5 22 -46.5 22s-44.5 -5.5 -67.5 -16.5
s-43.167 -26.167 -60.5 -45.5v-347c-11.333 -2.66699 -28.333 -4 -51 -4c-10.667 0 -20.334 0.333008 -29.001 1s-16.334 1.66699 -23.001 3v492l6 6h39c36 0 55 -20.667 57 -62c48.667 44.667 101.667 67 159 67c44.667 0 78 -14.833 100 -44.5s33 -69.5 33 -119.5z" />
    <glyph glyph-name="o" unicode="o" horiz-adv-x="520" 
d="M405 42c-36.667 -36.667 -85.001 -55.001 -145.001 -55.001c-34.667 0 -65.334 6.16699 -92.001 18.5s-49.167 30 -67.5 53s-32.333 50.333 -42 82s-14.5 67.167 -14.5 106.5c0 38.667 4.83301 74 14.5 106s23.667 59.5 42 82.5s40.833 40.667 67.5 53
s57.334 18.5 92.001 18.5s65.334 -6.16699 92.001 -18.5s49.167 -30 67.5 -53s32.333 -50.5 42 -82.5s14.5 -67.333 14.5 -106c0 -89.333 -23.667 -157.666 -71 -204.999zM259.999 427.999c-72.667 0 -109 -60.333 -109 -181s36.333 -181 109 -181
c73.333 0 110 60.333 110 181s-36.667 181 -110 181z" />
    <glyph glyph-name="p" unicode="p" 
d="M294 -9c-37.333 0 -75.3311 11 -113.998 33v-173c0 -23.333 -4.16699 -40.166 -12.5 -50.499s-22.833 -15.5 -43.5 -15.5h-40l-6 6v701l6 6h32c33.333 0 53.666 -17 60.999 -51c38.667 40 85 60 139 60c26.667 0 50.667 -6 72 -18s39.166 -29.333 53.499 -52
s25.333 -49.834 33 -81.501s11.5 -67.5 11.5 -107.5s-5 -76 -15 -108s-23.833 -59 -41.5 -81s-38.167 -38.833 -61.5 -50.5s-48 -17.5 -74 -17.5zM290.002 420c-43.333 0 -79.999 -21.6689 -109.999 -65.002v-245c17.333 -11.333 34.166 -20.166 50.499 -26.499
s31.833 -9.5 46.5 -9.5c31.333 0 56.5 15.333 75.5 46s28.5 74.334 28.5 131.001c0 58 -8.66699 100.667 -26 128s-39 41 -65 41z" />
    <glyph glyph-name="q" unicode="q" horiz-adv-x="529" 
d="M350 -149l0.000976562 192.001c-38.667 -34.667 -84.667 -52 -138 -52c-52.667 0 -93.834 23 -123.501 69s-44.5 109.333 -44.5 190c0 40.667 5.16699 76.834 15.5 108.501s24.333 58.5 42 80.5s38 38.833 61 50.5s47.5 17.5 73.5 17.5c51.333 0 96.666 -17 135.999 -51
c16 22.667 38.667 37.667 68 45c8 -4.66699 15.833 -12.334 23.5 -23.001s12.834 -20.667 15.501 -30c-18.667 -16.667 -28 -48.334 -28 -95.001v-562l-6 -6h-39c-21.333 0 -36 5 -44 15s-12 27 -12 51zM239.001 77.001c41.333 0 78.333 19.334 111 58.001v245
c-34.667 29.333 -67 44 -97 44c-30.667 0 -55.667 -14.833 -75 -44.5s-29 -73.834 -29 -132.501c0 -58 8.5 -100.833 25.5 -128.5s38.5 -41.5 64.5 -41.5z" />
    <glyph glyph-name="r" unicode="r" horiz-adv-x="368" 
d="M50 446c6.66699 24.667 19.334 43.002 38.001 55.002c46 -10 76.333 -39.667 91 -89c26.667 59.333 70.334 89 131.001 89c16 0 33.667 -2 53 -6c0 -38.667 -8.33301 -71.334 -25 -98.001c-6 2 -19.667 3.66699 -41 5c-45.333 0 -81 -25.333 -107 -76v-326
c-12.667 -2.66699 -29.834 -4 -51.501 -4s-38.834 1.33301 -51.501 4v343c0 45.333 -12.333 79.666 -37 102.999z" />
    <glyph glyph-name="s" unicode="s" horiz-adv-x="438" 
d="M31 37c0.666992 11.333 4.33203 24.168 10.999 38.501s14.334 25.5 23.001 33.5c53.333 -29.333 96.666 -44 129.999 -44c34 0 59.167 5.66699 75.5 17s24.5 26.333 24.5 45c0 29.333 -21 52 -63 68l-56 21c-84.667 32 -127 79.667 -127 143c0 46 16.5 82.167 49.5 108.5
s76.167 39.5 129.5 39.5c54 0 107.667 -12 161 -36c0 -13.333 -2.83301 -27.333 -8.5 -42s-13.167 -26 -22.5 -34c-47.333 22 -91.666 33 -132.999 33c-22 0 -39.5 -5.33301 -52.5 -16s-19.5 -24 -19.5 -40s4.83301 -28.333 14.5 -37s25.5 -17.334 47.5 -26.001l60 -23
c84.667 -32.667 127 -82.667 127 -150c0 -46 -17.667 -82.333 -53 -109s-83.333 -40 -144 -40s-118.667 16.667 -174 50z" />
    <glyph glyph-name="t" unicode="t" horiz-adv-x="350" 
d="M321 495c3.33301 -11.333 5 -24.333 5 -39s-1.66699 -27.334 -5 -38.001l-123 2v-299c0 -29.333 13.667 -44 41 -44h69c5.33301 -14.667 8 -29.5 8 -44.5s-0.666992 -24.833 -2 -29.5c-38.667 -4.66699 -76 -7 -112 -7c-70 0 -105 34.333 -105 103v320l-74 -1
c-2.66699 11.333 -4 23.833 -4 37.5s1.33301 26.834 4 39.501l74 -2v88c0 24 4 41 12 51s22.333 15 43 15h39l7 -7v-148z" />
    <glyph glyph-name="u" unicode="u" horiz-adv-x="547" 
d="M74 155l-0.000976562 233.002c0 40 -5.66699 70 -17 90c16.667 14.667 38.334 22 65.001 22c36.667 0 55 -21.667 55 -65v-255c0 -34.667 4.33301 -59.334 13 -74.001s24 -22 46 -22s44.333 5.5 67 16.5s43 25.833 61 44.5v349c18.667 2.66699 35.667 4 51 4
s33 -1.33301 53 -4v-354c0 -46.667 9.33301 -78.334 28 -95.001c-7.33301 -24 -20.333 -41.333 -39 -52c-42 7.33301 -70 31.333 -84 72c-52 -49.333 -107.667 -74 -167 -74c-44 0 -77 15 -99 45s-33 69.667 -33 119z" />
    <glyph glyph-name="v" unicode="v" horiz-adv-x="455" 
d="M236 84l118 410.001c12.667 2.66699 27.5 4 44.5 4s32.5 -2.66699 46.5 -8l3 -4c-50 -168 -101.333 -330 -154 -486c-19.333 -3.33301 -42 -5 -68 -5s-44.167 3.66699 -54.5 11s-19.5 22.666 -27.5 45.999l-138 434c22 10 41.667 15 59 15c30 0 48.667 -14.667 56 -44
l67 -220c12.667 -40 25.667 -88.333 39 -145c1.33301 -5.33301 4.33301 -8 9 -8z" />
    <glyph glyph-name="w" unicode="w" horiz-adv-x="723" 
d="M126 52l-103.998 434.999c20.667 9.33301 41 14 61 14c26.667 0 42.667 -14 48 -42l45 -208c8.66699 -38.667 19.667 -94 33 -166c1.33301 -5.33301 4 -8 8 -8l84 414c13.333 3.33301 34.166 5 62.499 5s48.5 -1.66699 60.5 -5l82 -406
c0.666992 -5.33301 3.33398 -8 8.00098 -8c9.33301 50.667 21.333 108.667 36 174l54 243c10.667 2.66699 26.5 4 47.5 4s37.167 -2.66699 48.5 -8l3 -5l-121 -486c-18.667 -2.66699 -41.834 -4 -69.501 -4s-47 3.66699 -58 11s-18.5 22.333 -22.5 45l-29 139l-38 208h-5
c-10.667 -60 -24.334 -129 -41.001 -207l-40 -191c-25.333 -3.33301 -50.333 -5 -75 -5s-42.5 3.83301 -53.5 11.5s-19.167 22.834 -24.5 45.501z" />
    <glyph glyph-name="x" unicode="x" horiz-adv-x="460" 
d="M331 494c12 2.66699 26.6689 4 44.002 4s33.666 -2.33301 48.999 -7l3 -8l-141 -221l161 -246c-24.667 -16 -48 -24 -70 -24s-40.333 10.333 -55 31l-100 153l-108 -177c-8 -2.66699 -22.333 -4 -43 -4s-38.334 2.66699 -53.001 8l-3 8l157 244l-144 223
c21.333 16 43.5 24 66.5 24s41.833 -10.333 56.5 -31l85 -132z" />
    <glyph glyph-name="y" unicode="y" horiz-adv-x="468" 
d="M456 485l-132 -469c-12 -42 -24.5 -77.833 -37.5 -107.5s-28 -53.834 -45 -72.501s-37 -32.334 -60 -41.001s-49.833 -13 -80.5 -13c-5.33301 0 -13.333 0.333008 -24 1s-21.334 1.83398 -32.001 3.50098s-20 3.66699 -28 6s-12 5.5 -12 9.5c0 11.333 2 24 6 38
s9.66699 24.667 17 32c22 -8.66699 48 -13 78 -13c28.667 0 52 10.167 70 30.5s33.333 51.5 46 93.5l3 12c-21.333 0.666992 -38 4.83398 -50 12.501s-21 21.5 -27 41.5l-132 437c24 10 45 15 63 15c26 0 43.333 -15.333 52 -46l68 -230c3.33301 -10.667 8 -28.167 14 -52.5
l23 -94.5c0.666992 -4.66699 3.66699 -7 9 -7l110 423c5.33301 1.33301 11.5 2.33301 18.5 3s14.833 1 23.5 1c9.33301 0 18.833 -0.5 28.5 -1.5s18.834 -2.83301 27.501 -5.5z" />
    <glyph glyph-name="z" unicode="z" horiz-adv-x="446" 
d="M51 97l162.998 222c18.667 25.333 45 57.666 79 96.999l-3 4c-28 -4 -72 -6 -132 -6h-105c-2.66699 8.66699 -4 20.167 -4 34.5s2 29.5 6 45.5h335c10 -30 15 -50.167 15 -60.5s-4.33301 -22.166 -13 -35.499l-163 -221c-13.333 -18.667 -39 -51 -77 -97l3 -4
c28.667 2.66699 59.334 4 92.001 4h48c50.667 0 86.334 4.66699 107.001 14c6.66699 -15.333 10 -30.333 10 -45c0 -32.667 -21.667 -49 -65 -49h-298c-9.33301 28 -14 47.667 -14 59s5.33301 24 16 38z" />
    <glyph glyph-name="braceleft" unicode="{" horiz-adv-x="346" 
d="M42 360c24 7.33301 43.667 21.502 59 42.502s23 45.833 23 74.5v170c0 46 13 83 39 111s60.333 45.333 103 52l52 9c7.33301 -8 12.833 -19.333 16.5 -34s4.16699 -27 1.5 -37l-49 -16c-38.667 -12 -58 -40.667 -58 -86v-167c0 -32 -7.5 -62 -22.5 -90
s-35.167 -48 -60.5 -60v-8c25.333 -11.333 45.5 -31 60.5 -59s22.5 -58 22.5 -90v-168c0 -44.667 19.333 -73.334 58 -86.001l49 -15c2.66699 -10.667 2.16699 -23.334 -1.5 -38.001s-9.16699 -26 -16.5 -34l-52 9c-43.333 7.33301 -77.833 24.833 -103.5 52.5
s-38.5 64.5 -38.5 110.5v171c0 28.667 -7.66699 53.5 -23 74.5s-35 35.167 -59 42.5c-2.66699 8.66699 -4 20.167 -4 34.5s1.33301 25.833 4 34.5z" />
    <glyph glyph-name="bar" unicode="|" horiz-adv-x="255" 
d="M79 -141l-0.00195312 915c12.667 3.33301 28.834 5 48.501 5s35.834 -1.66699 48.501 -5v-915c-13.333 -2.66699 -29.5 -4 -48.5 -4s-35.167 1.33301 -48.5 4z" />
    <glyph glyph-name="braceright" unicode="}" horiz-adv-x="346" 
d="M304 360c3.33301 -8.66699 5 -20.1689 5 -34.502s-1.66699 -25.833 -5 -34.5c-24 -7.33301 -43.667 -21.666 -59 -42.999s-23 -46 -23 -74v-171c0 -46 -12.833 -82.833 -38.5 -110.5s-60.167 -45.167 -103.5 -52.5l-51 -9c-7.33301 8 -13 19.5 -17 34.5
s-4.66699 27.5 -2 37.5l50 15c38 12.667 57 41.334 57 86.001v168c0 32 7.66699 62 23 90s35.333 47.667 60 59v8c-24.667 12 -44.667 32 -60 60s-23 58 -23 90v167c0 46 -19 74.667 -57 86l-50 16c-2.66699 10 -2 22.333 2 37s9.66699 26 17 34l51 -9
c42.667 -6.66699 77 -24 103 -52s39 -65 39 -111v-170c0 -28.667 7.66699 -53.5 23 -74.5s35 -35.167 59 -42.5z" />
    <glyph glyph-name="asciitilde" unicode="~" horiz-adv-x="586" 
d="M276 356l77.999 -35.998c20.667 -8 38 -12 52 -12c11.333 -0.666992 21.833 1.83301 31.5 7.5s19.167 13.834 28.5 24.501l19 22c12 -0.666992 24.167 -4.83398 36.5 -12.501s20.5 -16.834 24.5 -27.501l-13 -23c-32.667 -58.667 -78.667 -88 -138 -88
c-12.667 0.666992 -26.167 2.33398 -40.5 5.00098s-29.166 7.66699 -44.499 15l-79 36c-8 3.33301 -16 6.16602 -24 8.49902s-16.333 3.5 -25 3.5c-22 0.666992 -42.667 -10 -62 -32l-19 -22c-12 1.33301 -24.167 5.66602 -36.5 12.999s-20.5 16.333 -24.5 27l13 23
c32.667 58.667 78.667 88 138 88c24 0 52.333 -6.66699 85 -20z" />
    <glyph glyph-name="Zcaron" horiz-adv-x="562" 
d="M62 113l252.001 379c6.66699 10 33 45.333 79 106l-3 3c-29.333 -5.33301 -81.333 -8 -156 -8h-161c-2.66699 10.667 -4 23.5 -4 38.5s2.66699 32.167 8 51.5h412c10 -34 15 -57.5 15 -70.5s-4.66699 -26.5 -14 -40.5l-251 -376c-15.333 -23.333 -41.333 -59 -78 -107
l3 -3c42 4 82 6 120 6h104c53.333 0 92.666 6.33301 117.999 19c6 -18 9 -35.333 9 -52c0 -39.333 -24.667 -59 -74 -59h-380c-8.66699 33.333 -13 57 -13 71s4.66699 28 14 42zM170.001 892l112.001 -74l115 82c9.33301 -3.33301 18.666 -9.33301 27.999 -18
s15.333 -17.667 18 -27l-115 -113c-32 -6.66699 -62.667 -7 -92 -1l-112 106c8 22.667 23.333 37.667 46 45z" />
    <glyph glyph-name="Zcaron" unicode="&#x17d;" horiz-adv-x="562" 
d="M62 113l252.001 379c6.66699 10 33 45.333 79 106l-3 3c-29.333 -5.33301 -81.333 -8 -156 -8h-161c-2.66699 10.667 -4 23.5 -4 38.5s2.66699 32.167 8 51.5h412c10 -34 15 -57.5 15 -70.5s-4.66699 -26.5 -14 -40.5l-251 -376c-15.333 -23.333 -41.333 -59 -78 -107
l3 -3c42 4 82 6 120 6h104c53.333 0 92.666 6.33301 117.999 19c6 -18 9 -35.333 9 -52c0 -39.333 -24.667 -59 -74 -59h-380c-8.66699 33.333 -13 57 -13 71s4.66699 28 14 42zM170.001 892l112.001 -74l115 82c9.33301 -3.33301 18.666 -9.33301 27.999 -18
s15.333 -17.667 18 -27l-115 -113c-32 -6.66699 -62.667 -7 -92 -1l-112 106c8 22.667 23.333 37.667 46 45z" />
    <glyph glyph-name="zcaron" horiz-adv-x="446" 
d="M51 97l162.998 222c18.667 25.333 45 57.666 79 96.999l-3 4c-28 -4 -72 -6 -132 -6h-105c-2.66699 8.66699 -4 20.167 -4 34.5s2 29.5 6 45.5h335c10 -30 15 -50.167 15 -60.5s-4.33301 -22.166 -13 -35.499l-163 -221c-13.333 -18.667 -39 -51 -77 -97l3 -4
c28.667 2.66699 59.334 4 92.001 4h48c50.667 0 86.334 4.66699 107.001 14c6.66699 -15.333 10 -30.333 10 -45c0 -32.667 -21.667 -49 -65 -49h-298c-9.33301 28 -14 47.667 -14 59s5.33301 24 16 38zM129.998 727l93 -91.001l101 97c20 -6.66699 36 -21 48 -43l-107 -134
c-23.333 -9.33301 -52.333 -9.66602 -87 -0.999023l-98 126c11.333 22.667 28 38 50 46z" />
    <glyph glyph-name="zcaron" unicode="&#x17e;" horiz-adv-x="446" 
d="M51 97l162.998 222c18.667 25.333 45 57.666 79 96.999l-3 4c-28 -4 -72 -6 -132 -6h-105c-2.66699 8.66699 -4 20.167 -4 34.5s2 29.5 6 45.5h335c10 -30 15 -50.167 15 -60.5s-4.33301 -22.166 -13 -35.499l-163 -221c-13.333 -18.667 -39 -51 -77 -97l3 -4
c28.667 2.66699 59.334 4 92.001 4h48c50.667 0 86.334 4.66699 107.001 14c6.66699 -15.333 10 -30.333 10 -45c0 -32.667 -21.667 -49 -65 -49h-298c-9.33301 28 -14 47.667 -14 59s5.33301 24 16 38zM129.998 727l93 -91.001l101 97c20 -6.66699 36 -21 48 -43l-107 -134
c-23.333 -9.33301 -52.333 -9.66602 -87 -0.999023l-98 126c11.333 22.667 28 38 50 46z" />
    <glyph glyph-name="exclamdown" unicode="&#xa1;" horiz-adv-x="288" 
d="M186 299l12.001 -466c-27.333 -20 -64 -30 -110 -30l-7 8l25 488c11.333 3.33301 24.666 5 39.999 5c14.667 0 28 -1.66699 40 -5zM202.001 396c-13.333 -8 -32.3359 -12.001 -57.0029 -12.001c-12 0 -22.167 0.666992 -30.5 2s-15.166 4 -20.499 8s-9 9.83301 -11 17.5
s-3 17.834 -3 30.501c0 8.66699 0.666992 17.334 2 26.001s3.66602 16 6.99902 22c7.33301 4 15.833 7 25.5 9s19.834 3 30.501 3c10 0 18.833 -0.333008 26.5 -1s14.834 -2.83398 21.501 -6.50098s11.334 -9.66699 14.001 -18s4 -19.833 4 -34.5c0 -22 -3 -37.333 -9 -46z
" />
    <glyph glyph-name="cent" unicode="&#xa2;" horiz-adv-x="468" 
d="M205 -31l0.000976562 99c-28.667 4.66699 -53.334 14.667 -74.001 30s-37.5 34.666 -50.5 57.999s-22.667 49.833 -29 79.5s-9.5 61.5 -9.5 95.5c0 70.667 15.5 127.334 46.5 170.001s70.833 69.334 119.5 80.001v100c10 2 23.333 3 40 3s31 -1 43 -3v-98
c22 -3.33301 41.667 -10 59 -20s31.833 -21.667 43.5 -35s20.667 -27.833 27 -43.5s9.5 -30.834 9.5 -45.501c0 -40.667 -18.333 -61 -55 -61c-6 0 -12.333 0.5 -19 1.5s-13.667 2.16699 -21 3.5v14c0 30.667 -6.83301 56.5 -20.5 77.5s-36.167 31.5 -67.5 31.5
c-64.667 0 -97 -59.333 -97 -178c0 -118 37.333 -177 112 -177c39.333 0 79 17 119 51c22.667 -14 38 -33.333 46 -58c-36 -40.667 -82.333 -66 -139 -76v-99c-11.333 -2 -25.333 -3 -42 -3c-17.333 0 -31 1 -41 3z" />
    <glyph glyph-name="sterling" unicode="&#xa3;" horiz-adv-x="529" 
d="M215 345l183.999 1.00293c8 -26 8 -52.333 0 -79c-75.333 0 -131.666 0.333008 -168.999 1c0 -60.667 -21.667 -121.334 -65 -182.001l3 -3c61.333 3.33301 108 5 140 5h184c0 -16 -0.666992 -28.667 -2 -38c-6 -34 -29 -51 -69 -51h-353c-8.66699 34 -13 58 -13 72
s4.66699 27.333 14 40l16 25c32.667 47.333 49 91 49 131h-76c-8 25.333 -8 51.666 0 78.999c6 0 15.5 -0.166992 28.5 -0.5s22.833 -0.5 29.5 -0.5c-18.667 43.333 -30 74.166 -34 92.499s-6 33.5 -6 45.5c0 46 17.333 87.167 52 123.5s83.667 54.5 147 54.5
c78.667 0 145 -24.667 199 -74c-1.33301 -14 -7.33301 -27.667 -18 -41s-22.667 -22.333 -36 -27c-44 36.667 -89.667 55 -137 55c-30 0 -54.667 -8.66699 -74 -26s-29 -41 -29 -71c0 -24 5.33301 -50.667 16 -80z" />
    <glyph glyph-name="currency" unicode="&#xa4;" horiz-adv-x="575" 
d="M103 213c-23.333 35.333 -34.999 75.333 -34.999 120c0 46.667 11.333 87.334 34 122.001l-70 77c12 22 30.667 41 56 57l78 -72c34.667 22 74.667 33 120 33s85.666 -11 120.999 -33l79 73c23.333 -13.333 42.333 -32 57 -56l-72 -78
c23.333 -36.667 35 -77.334 35 -122.001c0 -21.333 -3 -42.333 -9 -63s-14.667 -40 -26 -58l71 -77c-12 -22 -30.667 -41 -56 -57l-80 73c-33.333 -21.333 -73 -32 -119 -32c-44.667 0 -84.667 10.667 -120 32l-79 -72c-24 14 -42.667 32.667 -56 56zM287.001 471
c-36 0 -64 -13.167 -84 -39.5s-30 -58.833 -30 -97.5c0 -19.333 2.66699 -37.166 8 -53.499s12.833 -30.666 22.5 -42.999s21.5 -22 35.5 -29s30 -10.5 48 -10.5s34 3.5 48 10.5s26 16.667 36 29s17.667 26.666 23 42.999s8 34.166 8 53.499
c0 38.667 -10.167 71.167 -30.5 97.5s-48.5 39.5 -84.5 39.5z" />
    <glyph glyph-name="yen" unicode="&#xa5;" horiz-adv-x="516" 
d="M459 171h-151.001v-171c-15.333 -2.66699 -32.833 -4 -52.5 -4s-36.167 1.33301 -49.5 4v171h-151c-3.33301 14.667 -5 26.334 -5 35.001s1.66699 20.667 5 36h146l-35 79h-111c-3.33301 14.667 -5 26.334 -5 35.001s1.66699 20.667 5 36h79l-110 246
c24 13.333 47 20 69 20s38.667 -13.333 50 -40l74 -179c10.667 -24 24.334 -62.667 41.001 -116h6c16 50.667 30.333 89.667 43 117l88 210c15.333 4 30.333 6 45 6s31 -2.33301 49 -7l4 -6l-113 -251h79c2.66699 -12.667 4 -24.834 4 -36.501s-1.33301 -23.167 -4 -34.5
h-111l-35 -79h146c2.66699 -12.667 4 -24.834 4 -36.501s-1.33301 -23.167 -4 -34.5z" />
    <glyph glyph-name="brokenbar" unicode="&#xa6;" horiz-adv-x="249" 
d="M77 -141l0.000976562 387c11.333 3.33301 26.833 5 46.5 5s36.167 -1.66699 49.5 -5v-387c-14 -2.66699 -30.333 -4 -49 -4s-34.334 1.33301 -47.001 4zM77.001 387l0.000976562 387c11.333 3.33301 26.833 5 46.5 5s36.167 -1.66699 49.5 -5v-387
c-14 -2.66699 -30.333 -4 -49 -4s-34.334 1.33301 -47.001 4z" />
    <glyph glyph-name="section" unicode="&#xa7;" horiz-adv-x="485" 
d="M455 304c0 -60 -35.333 -109.333 -106 -148c46 -32 69 -70.333 69 -115c0 -45.333 -17.5 -81.5 -52.5 -108.5s-82.167 -40.5 -141.5 -40.5c-60.667 0 -113.334 14 -158.001 42c0 12.667 3.16699 26.167 9.5 40.5s14.166 25.166 23.499 32.499
c48.667 -24 93.667 -36 135 -36c24.667 0 44.167 5.33301 58.5 16s21.5 25 21.5 43c0 26 -21 47.667 -63 65l-58 23c-50.667 20 -90.167 42.5 -118.5 67.5s-42.5 57.833 -42.5 98.5c0 30 9.66699 57.833 29 83.5s45 47.167 77 64.5c-46 30 -69 67.667 -69 113
c0 23.333 4.66699 44.333 14 63s22 34.5 38 47.5s35 23 57 30s45.667 10.5 71 10.5c51.333 0 103 -11.667 155 -35c0 -14 -2.66699 -28.167 -8 -42.5s-12.666 -25.166 -21.999 -32.499c-25.333 11.333 -48.333 19.333 -69 24s-38.667 7 -54 7
c-27.333 0 -47.166 -5.83301 -59.499 -17.5s-18.5 -25.5 -18.5 -41.5c0 -26 21 -47.333 63 -64l58 -23c50.667 -20 90.167 -42.833 118.5 -68.5s42.5 -58.5 42.5 -98.5zM249 382l-39 14.999c-50.667 -26 -76 -58.333 -76 -97c-0.666992 -22 8 -39.667 26 -53
s44 -26.666 78 -39.999l38 -15c50.667 26 76 58 76 96c0 21.333 -8.66699 39 -26 53s-43 27.667 -77 41z" />
    <glyph glyph-name="dieresis" unicode="&#xa8;" horiz-adv-x="398" 
d="M244 573c-3.33301 6 -5.5 12.332 -6.5 18.999s-1.5 13.334 -1.5 20.001c0 21.333 4 35.333 12 42s22.667 10 44 10c19.333 0 33.5 -2.66699 42.5 -8s13.5 -20 13.5 -44c0 -22 -3.83301 -36 -11.5 -42s-22.167 -9 -43.5 -9c-20 0 -36.333 4 -49 12zM58 572.999
c-3.33301 5.33301 -5.5 11.332 -6.5 17.999s-1.5 13.667 -1.5 21c0 22 5 36.167 15 42.5s23.667 9.5 41 9.5c20.667 0 35.167 -3.33301 43.5 -10s12.5 -20.667 12.5 -42s-4.16699 -35.166 -12.5 -41.499s-23.166 -9.5 -44.499 -9.5c-20.667 0 -36.334 4 -47.001 12z" />
    <glyph glyph-name="copyright" unicode="&#xa9;" horiz-adv-x="802" 
d="M144 84c-69.333 69.333 -104 155.002 -104 257.002c0 50.667 9.33301 98 28 142s44.167 82.167 76.5 114.5s70.5 57.833 114.5 76.5s91 28 141 28c50.667 0 98 -9.33301 142 -28s82.333 -44.334 115 -77.001s58.334 -70.834 77.001 -114.501s28 -90.834 28 -141.501
c0 -51.333 -9.33301 -98.833 -28 -142.5s-44.167 -81.667 -76.5 -114s-70.5 -57.666 -114.5 -75.999s-91.333 -27.5 -142 -27.5c-102.667 0 -188.334 34.333 -257.001 103zM205 545.002c-52 -56 -78 -124 -78 -204c0 -39.333 6.83301 -76.333 20.5 -111s32.667 -65 57 -91
s53.166 -46.667 86.499 -62s70 -23 110 -23s76.667 7.66699 110 23s62.333 36 87 62s43.834 56.333 57.501 91s20.5 71.667 20.5 111s-7 76.5 -21 111.5s-33.167 65.5 -57.5 91.5s-53.333 46.667 -87 62s-70.167 23 -109.5 23c-78.667 0 -144 -28 -196 -84zM472 380.002
l-0.00292969 10c0 22 -5.66699 41.5 -17 58.5s-29.666 25.5 -54.999 25.5c-26 0 -46.333 -11.333 -61 -34s-22 -55.334 -22 -98.001c0 -42 8.16699 -74.167 24.5 -96.5s39.5 -33.5 69.5 -33.5c15.333 0 31.5 3.33301 48.5 10s34.167 17 51.5 31
c17.333 -8.66699 29.666 -25.334 36.999 -50.001c-17.333 -17.333 -39.666 -31.666 -66.999 -42.999s-54.333 -17 -81 -17c-28.667 0 -53.667 4.83301 -75 14.5s-39.166 23.5 -53.499 41.5s-25.166 39.5 -32.499 64.5s-11 52.5 -11 82.5c0 30.667 4.66699 58.167 14 82.5
s22 44.833 38 61.5s34.5 29.334 55.5 38.001s43.167 13 66.5 13s44.166 -3.5 62.499 -10.5s34 -16.333 47 -28s23 -24.5 30 -38.5s10.5 -28 10.5 -42c0 -31.333 -15.333 -47 -46 -47c-11.333 0 -22.666 1.66699 -33.999 5z" />
    <glyph glyph-name="ordfeminine" unicode="&#xaa;" horiz-adv-x="424" 
d="M379 342c-1.33301 -8 -5.66602 -16.5 -12.999 -25.5s-15.333 -15.833 -24 -20.5c-30.667 4.66699 -52.334 20.334 -65.001 47.001c-37.333 -34 -75.666 -51 -114.999 -51c-20 0 -37.5 3.16699 -52.5 9.5s-27.667 14.666 -38 24.999s-18.166 22.5 -23.499 36.5
s-8 29 -8 45c0 44 13.833 76.5 41.5 97.5s64.5 31.5 110.5 31.5c7.33301 0 17.166 -0.333008 29.499 -1s27.166 -1.66699 44.499 -3v28c0 42.667 -19.667 64 -59 64c-36.667 0 -78.667 -9.33301 -126 -28c-16.667 17.333 -25 38.333 -25 63c56.667 24 108.667 36 156 36
c94.667 0 142 -44 142 -132v-154c0 -33.333 8.33301 -56 25 -68zM179 360c29.333 0 58.3311 14.332 86.998 42.999v69c-13.333 1.33301 -25.166 2.33301 -35.499 3s-20.166 1 -29.499 1c-22.667 0 -40.667 -5.16699 -54 -15.5s-20 -25.166 -20 -44.499
c0 -14 4.33301 -26.833 13 -38.5s19.667 -17.5 33 -17.5h6z" />
    <glyph glyph-name="guillemotleft" unicode="&#xab;" horiz-adv-x="558" 
d="M517 418l-139 -161l144 -166c-4 -11.333 -11.833 -22.333 -23.5 -33s-23.5 -17.667 -35.5 -21l-197 185c-4 8.66699 -6 19.5 -6 32.5s2 24.167 6 33.5l193 184c12 -3.33301 23.667 -10.333 35 -21s19 -21.667 23 -33zM290 418l-139 -161l144 -166
c-4 -11.333 -11.833 -22.333 -23.5 -33s-23.5 -17.667 -35.5 -21l-197 185c-4 9.33301 -6 20.333 -6 33s2 23.667 6 33l193 184c12 -3.33301 23.667 -10.333 35 -21s19 -21.667 23 -33z" />
    <glyph glyph-name="logicalnot" unicode="&#xac;" 
d="M379 256l-47.999 -0.998047h-280c-2.66699 11.333 -4 25.666 -4 42.999s1.33301 32.666 4 45.999h416l6 -7v-222c-12.667 -2.66699 -27.834 -4 -45.501 -4s-34.167 1.33301 -49.5 4v94z" />
    <glyph glyph-name="uni00AD" unicode="&#xad;" horiz-adv-x="350" 
d="M299 222l-248 0.00195312c-3.33301 11.333 -5 26.166 -5 44.499s1.66699 33.166 5 44.499h248c3.33301 -12 5 -27 5 -45s-1.66699 -32.667 -5 -44z" />
    <glyph glyph-name="registered" unicode="&#xae;" horiz-adv-x="593" 
d="M110 295c-50.667 50.667 -76.001 112.67 -76.001 186.003c0 36 6.5 70 19.5 102s31.667 59.833 56 83.5s52.333 42.334 84 56.001s65.834 20.5 102.501 20.5c36 0 70.333 -6.83301 103 -20.5s60.834 -32.334 84.501 -56.001s42 -51.5 55 -83.5s19.5 -66 19.5 -102
c0 -36.667 -6.83301 -70.834 -20.5 -102.501s-32.334 -59.334 -56.001 -83.001s-51.5 -42.334 -83.5 -56.001s-66 -20.5 -102 -20.5c-73.333 0 -135.333 25.333 -186 76zM157.999 622.003c-36.667 -38.667 -54.999 -85.666 -54.999 -140.999c0 -27.333 4.83301 -53 14.5 -77
s23.167 -45 40.5 -63s37.666 -32.333 60.999 -43s49 -16 77 -16c27.333 0 52.833 5.33301 76.5 16s44.167 25 61.5 43s31 39 41 63s15 49.667 15 77c0 26.667 -5 52.167 -15 76.5s-23.167 45.666 -39.5 63.999s-36.833 32.833 -61.5 43.5s-50.667 16 -78 16
c-54.667 0 -100.667 -19.667 -138 -59zM398 536.004c0 -32.667 -16.668 -54.665 -50.001 -65.998c10.667 -4 21.667 -17 33 -39l13 -26c6.66699 -12.667 14 -22 22 -28c-9.33301 -15.333 -22 -23 -38 -23c-16 -0.666992 -29.667 9.66602 -41 30.999l-25 46
c-7.33301 13.333 -17.333 20 -30 20h-22v-92c-11.333 -3.33301 -21.333 -5 -30 -5c-9.33301 0 -19.666 1.66699 -30.999 5v247l3 3c21.333 0.666992 40.833 1.16699 58.5 1.5s33.5 0.5 47.5 0.5c28 0 50 -6.83301 66 -20.5s24 -31.834 24 -54.501zM259.999 564.006
l-0.000976562 -66c10.667 1.33301 20.667 2 30 2s17.333 0.833008 24 2.5s11.834 4.5 15.501 8.5s5.5 10.667 5.5 20c0 22 -12.333 33 -37 33h-38z" />
    <glyph glyph-name="macron" unicode="&#xaf;" horiz-adv-x="398" 
d="M340 575h-281c-3.33301 11.333 -5 25 -5 41s1.66699 30 5 42h281c2.66699 -12.667 4 -26.5 4 -41.5s-1.33301 -28.833 -4 -41.5z" />
    <glyph glyph-name="degree" unicode="&#xb0;" horiz-adv-x="327" 
d="M163 378c-20.667 0 -39.833 3.66895 -57.5 11.002s-33 17.5 -46 30.5s-23.167 28.333 -30.5 46s-11 37.167 -11 58.5s3.83301 41.166 11.5 59.499s18 34 31 47s28.333 23.167 46 30.5s36.5 11 56.5 11c20.667 0 40 -3.83301 58 -11.5s33.5 -18 46.5 -31
s23.167 -28.667 30.5 -47s11 -37.833 11 -58.5s-3.66699 -39.834 -11 -57.501s-17.5 -33 -30.5 -46s-28.333 -23.333 -46 -31s-37.167 -11.5 -58.5 -11.5zM115.001 580.002c-6 -7.33301 -10.502 -15.834 -13.502 -25.501s-4.5 -19.5 -4.5 -29.5
c0 -22 5.83301 -40.333 17.5 -55s27.834 -22 48.501 -22c21.333 0 37.833 7.33301 49.5 22s17.5 32.667 17.5 54c0 22 -6.16699 40.333 -18.5 55s-28.5 22 -48.5 22c-9.33301 0 -18.166 -1.66699 -26.499 -5s-15.5 -8.66602 -21.5 -15.999z" />
    <glyph glyph-name="plusminus" unicode="&#xb1;" 
d="M219 386l-1 50v102c13.333 2.66699 29.166 4 47.499 4s33.833 -1.33301 46.5 -4v-102l-1 -50l47 1h105c2.66699 -13.333 4 -27.5 4 -42.5s-1.33301 -28.833 -4 -41.5h-105l-47 1l1 -49v-103c-12.667 -2.66699 -28.167 -4 -46.5 -4s-34.166 1.33301 -47.499 4v103l1 49
l-47 -1h-105c-2.66699 12.667 -4 26.5 -4 41.5s1.33301 29.167 4 42.5h105zM463 0h-396c-2.66699 13.333 -4 27.5 -4 42.5s1.33301 29.5 4 43.5h396c2.66699 -14 4 -28.5 4 -43.5s-1.33301 -29.167 -4 -42.5z" />
    <glyph glyph-name="twosuperior" unicode="&#xb2;" horiz-adv-x="420" 
d="M353 418c0 -28.667 -3.33203 -49.167 -9.99902 -61.5s-20.334 -18.5 -41.001 -18.5h-218c-19.333 25.333 -29 43.333 -29 54c0 35.333 25.333 74 76 116l73 60c14.667 12 25.667 23.833 33 35.5s11 24.167 11 37.5c0 15.333 -5 28 -15 38s-22.667 15 -38 15
c-29.333 0 -51.666 -18.667 -66.999 -56c-12 1.33301 -24.833 5 -38.5 11s-23.167 12.667 -28.5 20c9.33301 30 26.5 54.833 51.5 74.5s56.5 29.5 94.5 29.5c19.333 0 37.333 -3.5 54 -10.5s31 -16.167 43 -27.5s21.333 -24.333 28 -39s10 -30 10 -46
c0 -32.667 -6.66699 -59.5 -20 -80.5s-34 -42.167 -62 -63.5l-56 -44l-35.5 -29c-9.66699 -8 -16.167 -15.667 -19.5 -23c16.667 2.66699 32.167 4.66699 46.5 6s27.166 2 38.499 2h119z" />
    <glyph glyph-name="threesuperior" unicode="&#xb3;" horiz-adv-x="420" 
d="M316 680l-58 -56.999c-7.33301 -7.33301 -17 -14.666 -29 -21.999c34 0 62.667 -11.5 86 -34.5s35 -55.5 35 -97.5c0 -20.667 -4.16699 -39.334 -12.5 -56.001s-20 -30.834 -35 -42.501s-32.833 -20.667 -53.5 -27s-43.334 -9.5 -68.001 -9.5
c-49.333 0 -92.666 14.667 -129.999 44c4 23.333 15.667 43.666 35 60.999c17.333 -12 34 -20.667 50 -26s30.667 -8 44 -8c24 0 43.167 6.83301 57.5 20.5s21.5 29.834 21.5 48.501c0 23.333 -6.83301 41 -20.5 53s-29.5 18 -47.5 18c-8 0 -15.5 -0.833008 -22.5 -2.5
s-13.167 -3.83398 -18.5 -6.50098c-7.33301 3.33301 -14.5 9.5 -21.5 18.5s-11.5 18.5 -13.5 28.5l79 79c12.667 12.667 25.667 23.334 39 32.001l-2 3c-7.33301 -1.33301 -17.5 -2.5 -30.5 -3.5s-29.167 -1.5 -48.5 -1.5h-80c-2 4.66699 -3.33301 10 -4 16s-1 12.333 -1 19
c0 14.667 2 27.667 6 39h244c5.33301 -11.333 9.33301 -21 12 -29s4 -15.333 4 -22c0 -13.333 -5.66699 -25 -17 -35z" />
    <glyph glyph-name="acute" unicode="&#xb4;" horiz-adv-x="398" 
d="M123 580l144 159.001c15.333 -5.33301 30 -14.333 44 -27s23.667 -26.334 29 -41.001l-171 -133c-9.33301 2.66699 -18.333 8 -27 16s-15 16.667 -19 26z" />
    <glyph glyph-name="paragraph" unicode="&#xb6;" horiz-adv-x="671" 
d="M287 60l0.00195312 190.999h-19c-34 0 -64.833 4.83301 -92.5 14.5s-51.334 23.834 -71.001 42.501s-35 41.667 -46 69s-16.5 59 -16.5 95s5.5 67.5 16.5 94.5s26.5 49.5 46.5 67.5s44.167 31.5 72.5 40.5s59.833 13.5 94.5 13.5c8.66699 0 22.334 -0.333008 41.001 -1
s43 -1.66699 73 -3l6 -6v-600c0 -89.333 -15.833 -150.666 -47.5 -183.999s-79.834 -50 -144.501 -50c-46 0 -89.333 8 -130 24c0 32 8.33301 58.333 25 79c19.333 -6.66699 37.666 -11.834 54.999 -15.501s33.333 -5.5 48 -5.5c29.333 0 51.5 9.66699 66.5 29
s22.5 54.333 22.5 105zM457.002 -133.001v810l6 6h180c3.33301 -12 5 -27.333 5 -46s-1.66699 -33.667 -5 -45h-39h-24c-6.66699 0 -12.334 0.333008 -17.001 1v-726c-8 -1.33301 -16.667 -2.33301 -26 -3s-18.666 -1 -27.999 -1c-10 0 -19.333 0.333008 -28 1
s-16.667 1.66699 -24 3z" />
    <glyph glyph-name="periodcentered" unicode="&#xb7;" horiz-adv-x="305" 
d="M95 333c15.333 9.33301 34.667 14.001 58 14.001c22 0 38.5 -2.83301 49.5 -8.5s16.5 -23.834 16.5 -54.501c0 -27.333 -4.33301 -44.666 -13 -51.999s-26 -11 -52 -11c-12 0 -22.333 0.666992 -31 2s-16 4 -22 8s-10 10.333 -12 19s-3 20 -3 34
c0 21.333 3 37.666 9 48.999z" />
    <glyph glyph-name="cedilla" unicode="&#xb8;" horiz-adv-x="398" 
d="M145 -74l13.002 40.501c4 12.333 8.33301 23.5 13 33.5h65c-4.66699 -9.33301 -8.33398 -17 -11.001 -23s-4.66699 -10.667 -6 -14c28 -1.33301 50.5 -10 67.5 -26s25.5 -37.333 25.5 -64c0 -14 -3.16699 -26.833 -9.5 -38.5s-14.833 -21.667 -25.5 -30
s-23.167 -15 -37.5 -20s-29.5 -7.5 -45.5 -7.5c-32.667 0 -59.667 6.66699 -81 20c0.666992 17.333 7.66699 34.666 21 51.999c8 -5.33301 16.167 -9 24.5 -11s16.166 -3 23.499 -3c13.333 0 24.5 3.16699 33.5 9.5s13.5 14.5 13.5 24.5c0 16 -4.16699 27.167 -12.5 33.5
s-18.5 9.5 -30.5 9.5c-9.33301 0 -17 -1.33301 -23 -4c-8 2.66699 -14 8.66699 -18 18z" />
    <glyph glyph-name="onesuperior" unicode="&#xb9;" horiz-adv-x="420" 
d="M59 628c34 19.333 61.168 39.668 81.501 61.001s37.166 46.666 50.499 75.999c12.667 3.33301 26.167 5 40.5 5s28.5 -1.66699 42.5 -5v-349h83c2.66699 -10 4 -22.333 4 -37s-1.33301 -27.667 -4 -39h-271c-2.66699 12.667 -4 26 -4 40s1.33301 26 4 36h102v159
c0 6 0.5 17.167 1.5 33.5s1.5 26.833 1.5 31.5c-19.333 -26.667 -50.333 -49.334 -93 -68.001c-21.333 10.667 -34.333 29.334 -39 56.001z" />
    <glyph glyph-name="ordmasculine" unicode="&#xba;" horiz-adv-x="413" 
d="M321 655c37.333 -40.667 56.001 -94.667 56.001 -162c0 -28.667 -3.5 -55.167 -10.5 -79.5s-17.667 -45.5 -32 -63.5s-32.166 -32.167 -53.499 -42.5s-46.333 -15.5 -75 -15.5s-53.667 5.16699 -75 15.5s-39 24.5 -53 42.5s-24.5 39.167 -31.5 63.5
s-10.5 50.833 -10.5 79.5s3.33301 55.334 10 80.001s17 46.167 31 64.5s31.667 32.666 53 42.999s46.666 15.5 75.999 15.5c47.333 0 85.666 -13.667 114.999 -41zM125.001 495c0 -88.667 27.333 -132.999 82 -132.999c53.333 0 80 44 80 132c0 88.667 -26.667 133 -80 133
c-28.667 0 -49.5 -12.333 -62.5 -37s-19.5 -56.334 -19.5 -95.001z" />
    <glyph glyph-name="guillemotright" unicode="&#xbb;" horiz-adv-x="558" 
d="M42 92l137.999 161l-144 165c4 10.667 12 21.5 24 32.5s23.667 18.167 35 21.5l198 -185c8.66699 -22 8.66699 -43.667 0 -65l-194 -185c-11.333 3.33301 -22.666 10.5 -33.999 21.5s-19 22.167 -23 33.5zM268.999 92l137.999 161l-144 165c4 10.667 12 21.5 24 32.5
s23.667 18.167 35 21.5l198 -185c8.66699 -22 8.66699 -43.667 0 -65l-194 -185c-11.333 3.33301 -22.666 10.5 -33.999 21.5s-19 22.167 -23 33.5z" />
    <glyph glyph-name="onequarter" unicode="&#xbc;" horiz-adv-x="946" 
d="M36 547c34 19.333 61.168 39.668 81.501 61.001s37.166 46.666 50.499 75.999c12.667 3.33301 26.167 5 40.5 5s28.5 -1.66699 42.5 -5v-349h83c2.66699 -10 4 -22.333 4 -37s-1.33301 -27.667 -4 -39h-271c-2.66699 12.667 -4 26 -4 40s1.33301 26 4 36h102v159
c0 6 0.5 17.167 1.5 33.5s1.5 26.833 1.5 31.5c-19.333 -26.667 -50.333 -49.334 -93 -68.001c-21.333 10.667 -34.333 29.334 -39 56.001zM270.001 0.00195312l375.999 683c13.333 4 31.166 5.83301 53.499 5.5s38.5 -2.16602 48.5 -5.49902l-377 -683
c-13.333 -4 -31.166 -5.83301 -53.499 -5.5s-38.166 2.16602 -47.499 5.49902zM843 207.002l-1 -50.999h61c2 -9.33301 3 -21.166 3 -35.499s-2.33301 -27.166 -7 -38.499h-57v-78c-10.667 -2.66699 -24.334 -4 -41.001 -4s-31.334 1.33301 -44.001 4v42l1 36l-41 -1h-119
c-13.333 21.333 -20 38.166 -20 50.499s5 28.5 15 48.5l117 253c14 1.33301 29.333 0.166016 46 -3.50098s29.334 -9.16699 38.001 -16.5l-76 -164c-21.333 -45.333 -38.333 -76.333 -51 -93l2 -2c16.667 1.33301 40.334 2 71.001 2h18c-0.666992 5.33301 -1 13.333 -1 24
v33c0 19.333 5.33301 34.666 16 45.999s24.667 17 42 17h25l3 -3v-66z" />
    <glyph glyph-name="onehalf" unicode="&#xbd;" horiz-adv-x="946" 
d="M36 547c34 19.333 61.168 39.668 81.501 61.001s37.166 46.666 50.499 75.999c12.667 3.33301 26.167 5 40.5 5s28.5 -1.66699 42.5 -5v-349h83c2.66699 -10 4 -22.333 4 -37s-1.33301 -27.667 -4 -39h-271c-2.66699 12.667 -4 26 -4 40s1.33301 26 4 36h102v159
c0 6 0.5 17.167 1.5 33.5s1.5 26.833 1.5 31.5c-19.333 -26.667 -50.333 -49.334 -93 -68.001c-21.333 10.667 -34.333 29.334 -39 56.001zM255.001 0.00195312l375.999 683c13.333 4 31.166 5.83301 53.499 5.5s38.5 -2.16602 48.5 -5.49902l-377 -683
c-13.333 -4 -31.166 -5.83301 -53.499 -5.5s-38.166 2.16602 -47.499 5.49902zM897 81.002c0 -28.667 -3.33203 -49.167 -9.99902 -61.5s-20.334 -18.5 -41.001 -18.5h-218c-19.333 25.333 -29 43.333 -29 54c0 35.333 25.333 74 76 116l73 60
c14.667 12 25.667 23.833 33 35.5s11 24.167 11 37.5c0 15.333 -5 28 -15 38s-22.667 15 -38 15c-29.333 0 -51.666 -18.667 -66.999 -56c-12 1.33301 -24.833 5 -38.5 11s-23.167 12.667 -28.5 20c9.33301 30 26.5 54.833 51.5 74.5s56.5 29.5 94.5 29.5
c19.333 0 37.333 -3.5 54 -10.5s31 -16.167 43 -27.5s21.333 -24.333 28 -39s10 -30 10 -46c0 -32.667 -6.66699 -59.5 -20 -80.5s-34 -42.167 -62 -63.5l-56 -44l-35.5 -29c-9.66699 -8 -16.167 -15.667 -19.5 -23c16.667 2.66699 32.167 4.66699 46.5 6s27.166 2 38.499 2
h119z" />
    <glyph glyph-name="threequarters" unicode="&#xbe;" horiz-adv-x="946" 
d="M316 600l-58 -56.999c-7.33301 -7.33301 -17 -14.666 -29 -21.999c34 0 62.667 -11.5 86 -34.5s35 -55.5 35 -97.5c0 -20.667 -4.16699 -39.334 -12.5 -56.001s-20 -30.834 -35 -42.501s-32.833 -20.667 -53.5 -27s-43.334 -9.5 -68.001 -9.5
c-49.333 0 -92.666 14.667 -129.999 44c4 23.333 15.667 43.666 35 60.999c17.333 -12 34 -20.667 50 -26s30.667 -8 44 -8c24 0 43.167 6.83301 57.5 20.5s21.5 29.834 21.5 48.501c0 23.333 -6.83301 41 -20.5 53s-29.5 18 -47.5 18c-8 0 -15.5 -0.833008 -22.5 -2.5
s-13.167 -3.83398 -18.5 -6.50098c-7.33301 3.33301 -14.5 9.5 -21.5 18.5s-11.5 18.5 -13.5 28.5l79 79c12.667 12.667 25.667 23.334 39 32.001l-2 3c-7.33301 -1.33301 -17.5 -2.5 -30.5 -3.5s-29.167 -1.5 -48.5 -1.5h-80c-2 4.66699 -3.33301 10 -4 16s-1 12.333 -1 19
c0 14.667 2 27.667 6 39h244c5.33301 -11.333 9.33301 -21 12 -29s4 -15.333 4 -22c0 -13.333 -5.66699 -25 -17 -35zM255 0.000976562l375.999 683c13.333 4 31.166 5.83301 53.499 5.5s38.5 -2.16602 48.5 -5.49902l-377 -683c-13.333 -4 -31.166 -5.83301 -53.499 -5.5
s-38.166 2.16602 -47.499 5.49902zM837.999 207.001l-1 -50.999h61c2 -9.33301 3 -21.166 3 -35.499s-2.33301 -27.166 -7 -38.499h-57v-78c-10.667 -2.66699 -24.334 -4 -41.001 -4s-31.334 1.33301 -44.001 4v42l1 36l-41 -1h-119c-13.333 21.333 -20 38.166 -20 50.499
s5 28.5 15 48.5l117 253c14 1.33301 29.333 0.166016 46 -3.50098s29.334 -9.16699 38.001 -16.5l-76 -164c-21.333 -45.333 -38.333 -76.333 -51 -93l2 -2c16.667 1.33301 40.334 2 71.001 2h18c-0.666992 5.33301 -1 13.333 -1 24v33c0 19.333 5.33301 34.666 16 45.999
s24.667 17 42 17h25l3 -3v-66z" />
    <glyph glyph-name="questiondown" unicode="&#xbf;" horiz-adv-x="396" 
d="M388 -153c-63.333 -34 -125.332 -51.001 -185.999 -51.001s-107.667 15.5 -141 46.5s-50 72.5 -50 124.5c0 80 43.667 144.667 131 194l62 35l8 101c4.66699 2 10.667 3.5 18 4.5s14.666 1.5 21.999 1.5c16.667 0 30 -2 40 -6l6 -149l-9 -11l-49 -24
c-42 -20.667 -72.167 -43 -90.5 -67s-27.5 -48.333 -27.5 -73c0 -24 8.83301 -44.167 26.5 -60.5s42.5 -24.5 74.5 -24.5c17.333 0 36.666 2.83301 57.999 8.5s44.333 15.167 69 28.5c9.33301 -8 17.833 -19.667 25.5 -35s11.834 -29.666 12.501 -42.999zM308.001 395.999
c-14 -8 -33.333 -12.001 -58 -12.001c-10.667 0 -20 0.5 -28 1.5s-14.833 3.33301 -20.5 7s-9.66699 9.33398 -12 17.001s-3.5 18.5 -3.5 32.5c0 14.667 1.33301 26.167 4 34.5s7 14 13 17s13 5.16699 21 6.5s16.667 2 26 2s18 -0.333008 26 -1s15.5 -2.83398 22.5 -6.50098
s11.667 -9.5 14 -17.5s3.5 -19.667 3.5 -35c0 -21.333 -2.66699 -36.666 -8 -45.999z" />
    <glyph glyph-name="Agrave" unicode="&#xc0;" horiz-adv-x="611" 
d="M429 166l-59.999 -1h-137l-58 1l-53 -167c-11.333 -2.66699 -26.333 -4 -45 -4s-36.334 2.33301 -53.001 7l-3 5l226 676c14 2.66699 34.333 4 61 4s46.667 -1.33301 60 -4l224 -676c-14 -9.33301 -32 -14 -54 -14s-37.667 4 -47 12s-17.333 22.667 -24 44zM201.001 252
l51 1h100c27.333 -0.666992 44 -1 50 -1l-46 145c-23.333 74.667 -41 135 -53 181h-5c-8 -36.667 -21 -85 -39 -145zM218.001 902l202.999 -119.999c-5.33301 -26 -15.666 -44 -30.999 -54l-218 90c2 16 7.66699 32.167 17 48.5s19 28.166 29 35.499z" />
    <glyph glyph-name="Aacute" unicode="&#xc1;" horiz-adv-x="611" 
d="M429 166l-59.999 -1h-137l-58 1l-53 -167c-11.333 -2.66699 -26.333 -4 -45 -4s-36.334 2.33301 -53.001 7l-3 5l226 676c14 2.66699 34.333 4 61 4s46.667 -1.33301 60 -4l224 -676c-14 -9.33301 -32 -14 -54 -14s-37.667 4 -47 12s-17.333 22.667 -24 44zM201.001 252
l51 1h100c27.333 -0.666992 44 -1 50 -1l-46 145c-23.333 74.667 -41 135 -53 181h-5c-8 -36.667 -21 -85 -39 -145zM207.001 782l203 119.998c10 -7.33301 19.667 -19.166 29 -35.499s15 -32.5 17 -48.5l-218 -90c-7.33301 4.66699 -14 12.334 -20 23.001
s-9.66699 21 -11 31z" />
    <glyph glyph-name="Acircumflex" unicode="&#xc2;" horiz-adv-x="611" 
d="M429 166l-59.999 -1h-137l-58 1l-53 -167c-11.333 -2.66699 -26.333 -4 -45 -4s-36.334 2.33301 -53.001 7l-3 5l226 676c14 2.66699 34.333 4 61 4s46.667 -1.33301 60 -4l224 -676c-14 -9.33301 -32 -14 -54 -14s-37.667 4 -47 12s-17.333 22.667 -24 44zM201.001 252
l51 1h100c27.333 -0.666992 44 -1 50 -1l-46 145c-23.333 74.667 -41 135 -53 181h-5c-8 -36.667 -21 -85 -39 -145zM419.001 737l-113 75l-115 -83c-8.66699 3.33301 -17.667 9.5 -27 18.5s-15.333 18.167 -18 27.5l114 113c31.333 6 62 6 92 0l112 -106
c-3.33301 -10.667 -9.5 -20.167 -18.5 -28.5s-17.833 -13.833 -26.5 -16.5z" />
    <glyph glyph-name="Atilde" unicode="&#xc3;" horiz-adv-x="611" 
d="M429 166l-59.999 -1h-137l-58 1l-53 -167c-11.333 -2.66699 -26.333 -4 -45 -4s-36.334 2.33301 -53.001 7l-3 5l226 676c14 2.66699 34.333 4 61 4s46.667 -1.33301 60 -4l224 -676c-14 -9.33301 -32 -14 -54 -14s-37.667 4 -47 12s-17.333 22.667 -24 44zM201.001 252
l51 1h100c27.333 -0.666992 44 -1 50 -1l-46 145c-23.333 74.667 -41 135 -53 181h-5c-8 -36.667 -21 -85 -39 -145zM318.001 756l-56.001 27.001c-6 2.66699 -11.667 4.83398 -17 6.50098s-10.666 2.5 -15.999 2.5c-7.33301 0.666992 -13.833 -1.16602 -19.5 -5.49902
s-12.167 -10.833 -19.5 -19.5l-12 -14c-10 0 -20.167 3 -30.5 9s-17.5 13.333 -21.5 22l9 20c10.667 23.333 25.334 41.333 44.001 54s38.667 19 60 19c19.333 0 38.333 -5.33301 57 -16l56 -26c4.66699 -2.66699 9.5 -4.83398 14.5 -6.50098s10.167 -2.5 15.5 -2.5
c13.333 -0.666992 27.333 7.66602 42 24.999l12 14c24.667 -0.666992 42 -11.334 52 -32.001l-9 -19c-22.667 -48.667 -56.667 -73 -102 -73c-16.667 0 -36.334 5 -59.001 15z" />
    <glyph glyph-name="Adieresis" unicode="&#xc4;" horiz-adv-x="611" 
d="M429 166l-59.999 -1h-137l-58 1l-53 -167c-11.333 -2.66699 -26.333 -4 -45 -4s-36.334 2.33301 -53.001 7l-3 5l226 676c14 2.66699 34.333 4 61 4s46.667 -1.33301 60 -4l224 -676c-14 -9.33301 -32 -14 -54 -14s-37.667 4 -47 12s-17.333 22.667 -24 44zM201.001 252
l51 1h100c27.333 -0.666992 44 -1 50 -1l-46 145c-23.333 74.667 -41 135 -53 181h-5c-8 -36.667 -21 -85 -39 -145zM364.001 830c12 8 27.666 12.002 46.999 12.002c18.667 0 33.167 -2.66699 43.5 -8s15.5 -20.333 15.5 -45c0 -22 -3.66699 -36.333 -11 -43
s-23.333 -10 -48 -10c-23.333 0 -38.666 3.83301 -45.999 11.5s-11 21.5 -11 41.5c0 7.33301 0.833008 14.666 2.5 21.999s4.16699 13.666 7.5 18.999zM153 830.002c6 4 13.167 7 21.5 9s17.166 3 26.499 3c18 0 32.333 -2.83301 43 -8.5s16 -20.5 16 -44.5
c0 -22 -4 -36.333 -12 -43s-23.667 -10 -47 -10c-25.333 0 -41.166 4.5 -47.499 13.5s-9.5 22.167 -9.5 39.5c0 15.333 3 29 9 41z" />
    <glyph glyph-name="Aring" unicode="&#xc5;" horiz-adv-x="611" 
d="M429 166l-197.004 -0.999023l-58 1l-53 -167c-5.33301 -1.33301 -11.666 -2.33301 -18.999 -3s-15 -1 -23 -1c-9.33301 0 -18.666 0.5 -27.999 1.5s-18.666 2.83301 -27.999 5.5l-3 5l225 674c-39.333 21.333 -59 54.666 -59 99.999c0 15.333 3 29.833 9 43.5
s14.333 25.667 25 36s23.334 18.5 38.001 24.5s30.667 9 48 9c36 0 65.333 -10.833 88 -32.5s34 -48.5 34 -80.5c0 -46 -20.333 -79.333 -61 -100l224 -674c-14.667 -9.33301 -32.667 -14 -54 -14c-22 0 -37.667 4 -47 12s-17.333 22.667 -24 44zM200.996 252.001l151 1
l50 -1l-46 145l-31 101.5c-8.66699 29.667 -16 56.167 -22 79.5h-5c-8 -36 -21 -84.333 -39 -145zM306.996 835.001c-14.667 0 -26.832 -5.16699 -36.499 -15.5s-14.5 -23.5 -14.5 -39.5c0 -17.333 5.33301 -30.666 16 -39.999s23.667 -14 39 -14s26.666 5.66699 33.999 17
s11 23.666 11 36.999c0 14 -3.66699 26.667 -11 38s-20 17 -38 17z" />
    <glyph glyph-name="AE" unicode="&#xc6;" horiz-adv-x="876" 
d="M401 166l-54.9971 -1.00098h-89l-53 1l-81 -167c-13.333 -2.66699 -29.833 -4 -49.5 -4s-37.834 2.33301 -54.501 7l-4 6l328 665c14 6.66699 35.333 10 64 10h402c2.66699 -14 4 -28.5 4 -43.5s-3 -30.5 -9 -46.5h-301l1 -65v-140l62 1h189
c3.33301 -12 5 -26.833 5 -44.5s-1.66699 -32.167 -5 -43.5h-189c-26 0 -46.667 0.333008 -62 1v-163c0 -6 -0.166992 -14.5 -0.5 -25.5s-0.5 -19.833 -0.5 -26.5c19.333 2 41.333 3 66 3h260c0 -18 -1 -31.667 -3 -41c-4.66699 -33.333 -27.334 -50 -68.001 -50h-297
c-18.667 0 -33.334 5.83301 -44.001 17.5s-16 27.834 -16 48.501v101zM347.003 252.999l54 -1v326h-5c-22.667 -56 -43.667 -104.333 -63 -145l-88 -181l41 1h61z" />
    <glyph glyph-name="Ccedilla" unicode="&#xc7;" horiz-adv-x="604" 
d="M262 -74c6.66699 22.667 13.6699 43.6719 21.0029 63.0049c-42 3.33301 -77.833 15.333 -107.5 36s-53.834 47 -72.501 79s-32.334 68.167 -41.001 108.5s-13 82.166 -13 125.499c0 60 7 112.333 21 157s33.167 81.834 57.5 111.501s52.833 52 85.5 67
s67.334 22.5 104.001 22.5c38 0 72.167 -5.33301 102.5 -16s56.333 -25 78 -43s38.167 -38.667 49.5 -62s17 -48 17 -74c0 -40 -20 -60 -60 -60h-10c-4.66699 0 -9.5 0.5 -14.5 1.5s-9.5 2.16699 -13.5 3.5s-6 3.66602 -6 6.99902c0 20.667 -2.66699 40.5 -8 59.5
s-13.333 35.833 -24 50.5s-25.334 26.167 -44.001 34.5s-40.667 12.5 -66 12.5c-51.333 0 -90.333 -23 -117 -69s-40 -112 -40 -198c0 -85.333 14.333 -150.5 43 -195.5s71 -67.5 127 -67.5s114.333 25.333 175 76c27.333 -18 45 -41 53 -69
c-55.333 -55.333 -126 -88 -212 -98c-6.66699 -12.667 -10.334 -21.334 -11.001 -26.001c28 -1.33301 50.5 -10 67.5 -26s25.5 -37.333 25.5 -64c0 -14 -3.16699 -26.833 -9.5 -38.5s-14.833 -21.667 -25.5 -30s-23.167 -15 -37.5 -20s-29.5 -7.5 -45.5 -7.5
c-32.667 0 -59.667 6.66699 -81 20c0.666992 17.333 7.66699 34.666 21 51.999c14.667 -9.33301 30 -14 46 -14c17.333 0 29.833 3.66699 37.5 11s11.5 16.666 11.5 27.999c0 13.333 -4.66699 23.166 -14 29.499s-19.333 9.5 -30 9.5c-8 0 -15.333 -1.66699 -22 -5
c-8 2.66699 -14 8.66699 -18 18z" />
    <glyph glyph-name="Egrave" unicode="&#xc8;" horiz-adv-x="566" 
d="M195 138l-1 -51c20 2 42 3 66 3h259c0 -18 -1 -31.667 -3 -41c-6 -33.333 -28.667 -50 -68 -50h-297c-18.667 0 -33.5 5.83301 -44.5 17.5s-16.5 27.834 -16.5 48.501v612l7 6h402c2 -10.667 3 -24.834 3 -42.501s-2.66699 -33.5 -8 -47.5h-300l1 -65v-140l62 1h188
c3.33301 -12 5 -26.833 5 -44.5s-1.66699 -32.167 -5 -43.5h-188c-26 0 -46.667 0.333008 -62 1v-164zM210 902l202.999 -119.999c-5.33301 -26 -15.666 -44 -30.999 -54l-218 90c2 16 7.66699 32.167 17 48.5s19 28.166 29 35.499z" />
    <glyph glyph-name="Eacute" unicode="&#xc9;" horiz-adv-x="566" 
d="M195 138l-1 -51c20 2 42 3 66 3h259c0 -18 -1 -31.667 -3 -41c-6 -33.333 -28.667 -50 -68 -50h-297c-18.667 0 -33.5 5.83301 -44.5 17.5s-16.5 27.834 -16.5 48.501v612l7 6h402c2 -10.667 3 -24.834 3 -42.501s-2.66699 -33.5 -8 -47.5h-300l1 -65v-140l62 1h188
c3.33301 -12 5 -26.833 5 -44.5s-1.66699 -32.167 -5 -43.5h-188c-26 0 -46.667 0.333008 -62 1v-164zM198 782l203 119.998c10 -7.33301 19.667 -19.166 29 -35.499s15 -32.5 17 -48.5l-218 -90c-7.33301 4.66699 -14 12.334 -20 23.001s-9.66699 21 -11 31z" />
    <glyph glyph-name="Ecircumflex" unicode="&#xca;" horiz-adv-x="566" 
d="M195 138l-1 -51c20 2 42 3 66 3h259c0 -18 -1 -31.667 -3 -41c-6 -33.333 -28.667 -50 -68 -50h-297c-18.667 0 -33.5 5.83301 -44.5 17.5s-16.5 27.834 -16.5 48.501v612l7 6h402c2 -10.667 3 -24.834 3 -42.501s-2.66699 -33.5 -8 -47.5h-300l1 -65v-140l62 1h188
c3.33301 -12 5 -26.833 5 -44.5s-1.66699 -32.167 -5 -43.5h-188c-26 0 -46.667 0.333008 -62 1v-164zM411 737l-113 75l-115 -83c-8.66699 3.33301 -17.667 9.5 -27 18.5s-15.333 18.167 -18 27.5l114 113c31.333 6 62 6 92 0l112 -106
c-3.33301 -10.667 -9.5 -20.167 -18.5 -28.5s-17.833 -13.833 -26.5 -16.5z" />
    <glyph glyph-name="Edieresis" unicode="&#xcb;" horiz-adv-x="566" 
d="M195 138l-1 -51c20 2 42 3 66 3h259c0 -18 -1 -31.667 -3 -41c-6 -33.333 -28.667 -50 -68 -50h-297c-18.667 0 -33.5 5.83301 -44.5 17.5s-16.5 27.834 -16.5 48.501v612l7 6h402c2 -10.667 3 -24.834 3 -42.501s-2.66699 -33.5 -8 -47.5h-300l1 -65v-140l62 1h188
c3.33301 -12 5 -26.833 5 -44.5s-1.66699 -32.167 -5 -43.5h-188c-26 0 -46.667 0.333008 -62 1v-164zM356 830c12 8 27.666 12.002 46.999 12.002c18.667 0 33.167 -2.66699 43.5 -8s15.5 -20.333 15.5 -45c0 -22 -3.66699 -36.333 -11 -43s-23.333 -10 -48 -10
c-23.333 0 -38.666 3.83301 -45.999 11.5s-11 21.5 -11 41.5c0 7.33301 0.833008 14.666 2.5 21.999s4.16699 13.666 7.5 18.999zM144.999 830.002c6 4 13.167 7 21.5 9s17.166 3 26.499 3c18 0 32.333 -2.83301 43 -8.5s16 -20.5 16 -44.5c0 -22 -4 -36.333 -12 -43
s-23.667 -10 -47 -10c-25.333 0 -41.166 4.5 -47.499 13.5s-9.5 22.167 -9.5 39.5c0 15.333 3 29 9 41z" />
    <glyph glyph-name="Igrave" unicode="&#xcc;" horiz-adv-x="294" 
d="M94 0v683c13.333 2.66699 30.833 4 52.5 4s39.5 -1.33301 53.5 -4v-683c-14 -2.66699 -31.833 -4 -53.5 -4s-39.167 1.33301 -52.5 4zM60 902l202.999 -119.999c-5.33301 -26 -15.666 -44 -30.999 -54l-218 90c2 16 7.66699 32.167 17 48.5s19 28.166 29 35.499z" />
    <glyph glyph-name="Iacute" unicode="&#xcd;" horiz-adv-x="294" 
d="M94 0v683c13.333 2.66699 30.833 4 52.5 4s39.5 -1.33301 53.5 -4v-683c-14 -2.66699 -31.833 -4 -53.5 -4s-39.167 1.33301 -52.5 4zM47 782l203 119.998c10 -7.33301 19.667 -19.166 29 -35.499s15 -32.5 17 -48.5l-218 -90c-7.33301 4.66699 -14 12.334 -20 23.001
s-9.66699 21 -11 31z" />
    <glyph glyph-name="Icircumflex" unicode="&#xce;" horiz-adv-x="294" 
d="M94 0v683c13.333 2.66699 30.833 4 52.5 4s39.5 -1.33301 53.5 -4v-683c-14 -2.66699 -31.833 -4 -53.5 -4s-39.167 1.33301 -52.5 4zM260 737l-113 75l-115 -83c-8.66699 3.33301 -17.667 9.5 -27 18.5s-15.333 18.167 -18 27.5l114 113c31.333 6 62 6 92 0l112 -106
c-3.33301 -10.667 -9.5 -20.167 -18.5 -28.5s-17.833 -13.833 -26.5 -16.5z" />
    <glyph glyph-name="Idieresis" unicode="&#xcf;" horiz-adv-x="294" 
d="M94 0v683c13.333 2.66699 30.833 4 52.5 4s39.5 -1.33301 53.5 -4v-683c-14 -2.66699 -31.833 -4 -53.5 -4s-39.167 1.33301 -52.5 4zM205 830c12 8 27.666 12.002 46.999 12.002c18.667 0 33.167 -2.66699 43.5 -8s15.5 -20.333 15.5 -45
c0 -22 -3.66699 -36.333 -11 -43s-23.333 -10 -48 -10c-23.333 0 -38.666 3.83301 -45.999 11.5s-11 21.5 -11 41.5c0 7.33301 0.833008 14.666 2.5 21.999s4.16699 13.666 7.5 18.999zM-6.00098 830.002c6 4 13.167 7 21.5 9s17.166 3 26.499 3
c18 0 32.333 -2.83301 43 -8.5s16 -20.5 16 -44.5c0 -22 -4 -36.333 -12 -43s-23.667 -10 -47 -10c-25.333 0 -41.166 4.5 -47.499 13.5s-9.5 22.167 -9.5 39.5c0 15.333 3 29 9 41z" />
    <glyph glyph-name="Eth" unicode="&#xd0;" horiz-adv-x="664" 
d="M507 46c-10 -8 -22 -15.1699 -36 -21.5029s-28.833 -11.666 -44.5 -15.999s-31.667 -7.66602 -48 -9.99902s-31.833 -3.5 -46.5 -3.5c-15.333 0 -41 0.333008 -77 1s-83.333 1.66699 -142 3l-7 7v296h-77c-1.33301 5.33301 -2.33301 11.833 -3 19.5s-1 15.5 -1 23.5
s0.333008 15.833 1 23.5s1.66699 14.834 3 21.501h77v287l7 7c58 2 131.333 3 220 3c54 0 99 -9 135 -27s64.667 -42.667 86 -74s36.5 -68 45.5 -110s13.5 -87 13.5 -135c0 -66.667 -7.33301 -124 -22 -172s-42.667 -89 -84 -123zM333 600.997l-122.001 -0.00195312v-211
h154c1.33301 -8 2.5 -15.667 3.5 -23s1.5 -14.666 1.5 -21.999c0 -13.333 -1.66699 -27.666 -5 -42.999h-154v-221h122c32.667 0 59.834 6.33301 81.501 19s39 30.5 52 53.5s22.167 50.5 27.5 82.5s8 67.333 8 106c0 83.333 -12.667 147.333 -38 192s-69 67 -131 67z" />
    <glyph glyph-name="Ntilde" unicode="&#xd1;" horiz-adv-x="680" 
d="M583 687l5.99805 -5v-681c-18.667 -3.33301 -40 -5 -64 -5s-45.333 1.33301 -64 4l-213 419c-21.333 44.667 -42.333 91 -63 139l-4 -1c6 -103.333 9 -185 9 -245v-312c-16 -2.66699 -32.667 -4 -50 -4s-33.666 1.33301 -48.999 4v682c18.667 3.33301 39.834 5 63.501 5
s44.834 -1.33301 63.501 -4l211 -419l37 -81.5c15.333 -34.333 25 -55.5 29 -63.5l4 1c-5.33301 85.333 -8 169.333 -8 252v249c0 24 4.16699 41 12.5 51s23.166 15 44.499 15h35zM353.998 756l-56.001 27.001c-6 2.66699 -11.667 4.83398 -17 6.50098
s-10.666 2.5 -15.999 2.5c-7.33301 0.666992 -13.833 -1.16602 -19.5 -5.49902s-12.167 -10.833 -19.5 -19.5l-12 -14c-10 0 -20.167 3 -30.5 9s-17.5 13.333 -21.5 22l9 20c10.667 23.333 25.334 41.333 44.001 54s38.667 19 60 19c19.333 0 38.333 -5.33301 57 -16l56 -26
c4.66699 -2.66699 9.5 -4.83398 14.5 -6.50098s10.167 -2.5 15.5 -2.5c13.333 -0.666992 27.333 7.66602 42 24.999l12 14c24.667 -0.666992 42 -11.334 52 -32.001l-9 -19c-22.667 -48.667 -56.667 -73 -102 -73c-16.667 0 -36.334 5 -59.001 15z" />
    <glyph glyph-name="Ograve" unicode="&#xd2;" horiz-adv-x="658" 
d="M192 521c-11.333 -28 -19.3379 -56.3301 -24.0049 -84.9971s-7 -58.334 -7 -89.001c0 -34 2.33301 -67.5 7 -100.5s13.334 -62.5 26.001 -88.5s30 -46.833 52 -62.5s50 -23.5 84 -23.5c36.667 0 65.834 9.16699 87.501 27.5s38.334 41.166 50.001 68.499
s19.334 56.666 23.001 87.999s5.5 60 5.5 86c0 26.667 -1.83301 55.667 -5.5 87s-11.167 60.5 -22.5 87.5s-28.166 49.5 -50.499 67.5s-51.833 27 -88.5 27c-34 0 -62.5 -8 -85.5 -24s-40.167 -38 -51.5 -66zM155.995 47.0029c-71.333 61.333 -107 159.332 -107 293.999
c0 54.667 6.16699 103.834 18.5 147.501s30.333 80.834 54 111.501s52.834 54.334 87.501 71.001s74.667 25 120 25c44.667 0 84.5 -8.16699 119.5 -24.5s64.167 -39.833 87.5 -70.5s41.166 -68 53.499 -112s18.5 -93.333 18.5 -148s-6.16699 -103.834 -18.5 -147.501
s-30.166 -80.834 -53.499 -111.501s-52.5 -54.167 -87.5 -70.5s-74.833 -24.5 -119.5 -24.5c-70.667 0 -128.334 20 -173.001 60zM239.995 902.002l202.999 -119.999c-5.33301 -26 -15.666 -44 -30.999 -54l-218 90c2 16 7.66699 32.167 17 48.5s19 28.166 29 35.499z" />
    <glyph glyph-name="Oacute" unicode="&#xd3;" horiz-adv-x="658" 
d="M192 521c-11.333 -28 -19.3379 -56.3301 -24.0049 -84.9971s-7 -58.334 -7 -89.001c0 -34 2.33301 -67.5 7 -100.5s13.334 -62.5 26.001 -88.5s30 -46.833 52 -62.5s50 -23.5 84 -23.5c36.667 0 65.834 9.16699 87.501 27.5s38.334 41.166 50.001 68.499
s19.334 56.666 23.001 87.999s5.5 60 5.5 86c0 26.667 -1.83301 55.667 -5.5 87s-11.167 60.5 -22.5 87.5s-28.166 49.5 -50.499 67.5s-51.833 27 -88.5 27c-34 0 -62.5 -8 -85.5 -24s-40.167 -38 -51.5 -66zM155.995 47.0029c-71.333 61.333 -107 159.332 -107 293.999
c0 54.667 6.16699 103.834 18.5 147.501s30.333 80.834 54 111.501s52.834 54.334 87.501 71.001s74.667 25 120 25c44.667 0 84.5 -8.16699 119.5 -24.5s64.167 -39.833 87.5 -70.5s41.166 -68 53.499 -112s18.5 -93.333 18.5 -148s-6.16699 -103.834 -18.5 -147.501
s-30.166 -80.834 -53.499 -111.501s-52.5 -54.167 -87.5 -70.5s-74.833 -24.5 -119.5 -24.5c-70.667 0 -128.334 20 -173.001 60zM226.995 782.002l203 119.998c10 -7.33301 19.667 -19.166 29 -35.499s15 -32.5 17 -48.5l-218 -90c-7.33301 4.66699 -14 12.334 -20 23.001
s-9.66699 21 -11 31z" />
    <glyph glyph-name="Ocircumflex" unicode="&#xd4;" horiz-adv-x="658" 
d="M192 521c-11.333 -28 -19.3379 -56.3301 -24.0049 -84.9971s-7 -58.334 -7 -89.001c0 -34 2.33301 -67.5 7 -100.5s13.334 -62.5 26.001 -88.5s30 -46.833 52 -62.5s50 -23.5 84 -23.5c36.667 0 65.834 9.16699 87.501 27.5s38.334 41.166 50.001 68.499
s19.334 56.666 23.001 87.999s5.5 60 5.5 86c0 26.667 -1.83301 55.667 -5.5 87s-11.167 60.5 -22.5 87.5s-28.166 49.5 -50.499 67.5s-51.833 27 -88.5 27c-34 0 -62.5 -8 -85.5 -24s-40.167 -38 -51.5 -66zM155.995 47.0029c-71.333 61.333 -107 159.332 -107 293.999
c0 54.667 6.16699 103.834 18.5 147.501s30.333 80.834 54 111.501s52.834 54.334 87.501 71.001s74.667 25 120 25c44.667 0 84.5 -8.16699 119.5 -24.5s64.167 -39.833 87.5 -70.5s41.166 -68 53.499 -112s18.5 -93.333 18.5 -148s-6.16699 -103.834 -18.5 -147.501
s-30.166 -80.834 -53.499 -111.501s-52.5 -54.167 -87.5 -70.5s-74.833 -24.5 -119.5 -24.5c-70.667 0 -128.334 20 -173.001 60zM440.995 737.002l-113 75l-115 -83c-8.66699 3.33301 -17.667 9.5 -27 18.5s-15.333 18.167 -18 27.5l114 113c31.333 6 62 6 92 0l112 -106
c-3.33301 -10.667 -9.5 -20.167 -18.5 -28.5s-17.833 -13.833 -26.5 -16.5z" />
    <glyph glyph-name="Otilde" unicode="&#xd5;" horiz-adv-x="658" 
d="M192 521c-11.333 -28 -19.3379 -56.3301 -24.0049 -84.9971s-7 -58.334 -7 -89.001c0 -34 2.33301 -67.5 7 -100.5s13.334 -62.5 26.001 -88.5s30 -46.833 52 -62.5s50 -23.5 84 -23.5c36.667 0 65.834 9.16699 87.501 27.5s38.334 41.166 50.001 68.499
s19.334 56.666 23.001 87.999s5.5 60 5.5 86c0 26.667 -1.83301 55.667 -5.5 87s-11.167 60.5 -22.5 87.5s-28.166 49.5 -50.499 67.5s-51.833 27 -88.5 27c-34 0 -62.5 -8 -85.5 -24s-40.167 -38 -51.5 -66zM155.995 47.0029c-71.333 61.333 -107 159.332 -107 293.999
c0 54.667 6.16699 103.834 18.5 147.501s30.333 80.834 54 111.501s52.834 54.334 87.501 71.001s74.667 25 120 25c44.667 0 84.5 -8.16699 119.5 -24.5s64.167 -39.833 87.5 -70.5s41.166 -68 53.499 -112s18.5 -93.333 18.5 -148s-6.16699 -103.834 -18.5 -147.501
s-30.166 -80.834 -53.499 -111.501s-52.5 -54.167 -87.5 -70.5s-74.833 -24.5 -119.5 -24.5c-70.667 0 -128.334 20 -173.001 60zM336.995 756.002l-56.001 27.001c-6 2.66699 -11.667 4.83398 -17 6.50098s-10.666 2.5 -15.999 2.5
c-7.33301 0.666992 -13.833 -1.16602 -19.5 -5.49902s-12.167 -10.833 -19.5 -19.5l-12 -14c-10 0 -20.167 3 -30.5 9s-17.5 13.333 -21.5 22l9 20c10.667 23.333 25.334 41.333 44.001 54s38.667 19 60 19c19.333 0 38.333 -5.33301 57 -16l56 -26
c4.66699 -2.66699 9.5 -4.83398 14.5 -6.50098s10.167 -2.5 15.5 -2.5c13.333 -0.666992 27.333 7.66602 42 24.999l12 14c24.667 -0.666992 42 -11.334 52 -32.001l-9 -19c-22.667 -48.667 -56.667 -73 -102 -73c-16.667 0 -36.334 5 -59.001 15z" />
    <glyph glyph-name="Odieresis" unicode="&#xd6;" horiz-adv-x="658" 
d="M192 521c-11.333 -28 -19.3379 -56.3301 -24.0049 -84.9971s-7 -58.334 -7 -89.001c0 -34 2.33301 -67.5 7 -100.5s13.334 -62.5 26.001 -88.5s30 -46.833 52 -62.5s50 -23.5 84 -23.5c36.667 0 65.834 9.16699 87.501 27.5s38.334 41.166 50.001 68.499
s19.334 56.666 23.001 87.999s5.5 60 5.5 86c0 26.667 -1.83301 55.667 -5.5 87s-11.167 60.5 -22.5 87.5s-28.166 49.5 -50.499 67.5s-51.833 27 -88.5 27c-34 0 -62.5 -8 -85.5 -24s-40.167 -38 -51.5 -66zM155.995 47.0029c-71.333 61.333 -107 159.332 -107 293.999
c0 54.667 6.16699 103.834 18.5 147.501s30.333 80.834 54 111.501s52.834 54.334 87.501 71.001s74.667 25 120 25c44.667 0 84.5 -8.16699 119.5 -24.5s64.167 -39.833 87.5 -70.5s41.166 -68 53.499 -112s18.5 -93.333 18.5 -148s-6.16699 -103.834 -18.5 -147.501
s-30.166 -80.834 -53.499 -111.501s-52.5 -54.167 -87.5 -70.5s-74.833 -24.5 -119.5 -24.5c-70.667 0 -128.334 20 -173.001 60zM385.995 830.002c12 8 27.666 12.002 46.999 12.002c18.667 0 33.167 -2.66699 43.5 -8s15.5 -20.333 15.5 -45
c0 -22 -3.66699 -36.333 -11 -43s-23.333 -10 -48 -10c-23.333 0 -38.666 3.83301 -45.999 11.5s-11 21.5 -11 41.5c0 7.33301 0.833008 14.666 2.5 21.999s4.16699 13.666 7.5 18.999zM174.994 830.004c6 4 13.167 7 21.5 9s17.166 3 26.499 3
c18 0 32.333 -2.83301 43 -8.5s16 -20.5 16 -44.5c0 -22 -4 -36.333 -12 -43s-23.667 -10 -47 -10c-25.333 0 -41.166 4.5 -47.499 13.5s-9.5 22.167 -9.5 39.5c0 15.333 3 29 9 41z" />
    <glyph glyph-name="multiply" unicode="&#xd7;" 
d="M264 230l-128 -129.998c-11.333 5.33301 -23.5 14.166 -36.5 26.499s-22.167 25.166 -27.5 38.499l106 105l23 23l-30 31l-99 98c13.333 30.667 34.666 52.334 63.999 65.001l99 -99c18 -20 27.667 -30.667 29 -32c5.33301 4.66699 11.333 10.5 18 17.5l13 13.5l98 100
c28.667 -12.667 50.334 -34.334 65.001 -65.001l-99 -98c-3.33301 -4 -9 -9.66699 -17 -17s-13 -12 -15 -14c20 -18 30.667 -27.667 32 -29l99 -99c-14 -32.667 -35.667 -54 -65 -64l-98 99z" />
    <glyph glyph-name="Oslash" unicode="&#xd8;" horiz-adv-x="659" 
d="M49 342c0 48.667 5.66895 94.499 17.002 137.499s28.666 80.5 51.999 112.5s52.5 57.333 87.5 76s76.5 28 124.5 28c50.667 0 92.667 -9.33301 126 -28l40 69c12 -1.33301 24.833 -5.66602 38.5 -12.999s24.167 -15.666 31.5 -24.999l-46 -80
c60 -65.333 90 -157.666 90 -276.999c0 -48 -5.5 -93.5 -16.5 -136.5s-28 -80.667 -51 -113s-52.167 -58 -87.5 -77s-77 -28.5 -125 -28.5c-48.667 0 -91.334 9.33301 -128.001 28l-38 -68c-12 1.33301 -24.833 5.66602 -38.5 12.999s-24.167 15.666 -31.5 24.999l44 79
c-59.333 65.333 -89 158 -89 278zM190.002 160.999l223 428.001c-23.333 16 -51.333 24 -84 24s-60 -7.5 -82 -22.5s-39.5 -35.167 -52.5 -60.5s-22.333 -54.833 -28 -88.5s-8.5 -68.834 -8.5 -105.501c0 -70.667 10.667 -129 32 -175zM468.002 522l-223.001 -428
c24.667 -16 53.334 -24 86.001 -24c32 0 58.833 7.5 80.5 22.5s39 35.167 52 60.5s22.333 54.5 28 87.5s8.5 67.833 8.5 104.5c0 70 -10.667 129 -32 177z" />
    <glyph glyph-name="Ugrave" unicode="&#xd9;" horiz-adv-x="669" 
d="M587 683l0.00195312 -443c0 -81.333 -22.667 -143.833 -68 -187.5s-107 -65.5 -185 -65.5c-77.333 0 -138.666 21.667 -183.999 65s-68 106 -68 188v441l6 6h41c21.333 0 36.5 -5.33301 45.5 -16s13.5 -28 13.5 -52v-379c0 -54.667 12.333 -96.167 37 -124.5
s61 -42.5 109 -42.5c97.333 0 146 55.667 146 167v443c7.33301 1.33301 15.666 2.33301 24.999 3s18.666 1 27.999 1c10 0 19.667 -0.333008 29 -1s17.666 -1.66699 24.999 -3zM243.002 902l202.999 -119.999c-5.33301 -26 -15.666 -44 -30.999 -54l-218 90
c2 16 7.66699 32.167 17 48.5s19 28.166 29 35.499z" />
    <glyph glyph-name="Uacute" unicode="&#xda;" horiz-adv-x="669" 
d="M587 683l0.00195312 -443c0 -81.333 -22.667 -143.833 -68 -187.5s-107 -65.5 -185 -65.5c-77.333 0 -138.666 21.667 -183.999 65s-68 106 -68 188v441l6 6h41c21.333 0 36.5 -5.33301 45.5 -16s13.5 -28 13.5 -52v-379c0 -54.667 12.333 -96.167 37 -124.5
s61 -42.5 109 -42.5c97.333 0 146 55.667 146 167v443c7.33301 1.33301 15.666 2.33301 24.999 3s18.666 1 27.999 1c10 0 19.667 -0.333008 29 -1s17.666 -1.66699 24.999 -3zM232.002 782l203 119.998c10 -7.33301 19.667 -19.166 29 -35.499s15 -32.5 17 -48.5l-218 -90
c-7.33301 4.66699 -14 12.334 -20 23.001s-9.66699 21 -11 31z" />
    <glyph glyph-name="Ucircumflex" unicode="&#xdb;" horiz-adv-x="669" 
d="M587 683l0.00195312 -443c0 -81.333 -22.667 -143.833 -68 -187.5s-107 -65.5 -185 -65.5c-77.333 0 -138.666 21.667 -183.999 65s-68 106 -68 188v441l6 6h41c21.333 0 36.5 -5.33301 45.5 -16s13.5 -28 13.5 -52v-379c0 -54.667 12.333 -96.167 37 -124.5
s61 -42.5 109 -42.5c97.333 0 146 55.667 146 167v443c7.33301 1.33301 15.666 2.33301 24.999 3s18.666 1 27.999 1c10 0 19.667 -0.333008 29 -1s17.666 -1.66699 24.999 -3zM444.002 737l-113 75l-115 -83c-8.66699 3.33301 -17.667 9.5 -27 18.5
s-15.333 18.167 -18 27.5l114 113c31.333 6 62 6 92 0l112 -106c-3.33301 -10.667 -9.5 -20.167 -18.5 -28.5s-17.833 -13.833 -26.5 -16.5z" />
    <glyph glyph-name="Udieresis" unicode="&#xdc;" horiz-adv-x="669" 
d="M587 683l0.00195312 -443c0 -81.333 -22.667 -143.833 -68 -187.5s-107 -65.5 -185 -65.5c-77.333 0 -138.666 21.667 -183.999 65s-68 106 -68 188v441l6 6h41c21.333 0 36.5 -5.33301 45.5 -16s13.5 -28 13.5 -52v-379c0 -54.667 12.333 -96.167 37 -124.5
s61 -42.5 109 -42.5c97.333 0 146 55.667 146 167v443c7.33301 1.33301 15.666 2.33301 24.999 3s18.666 1 27.999 1c10 0 19.667 -0.333008 29 -1s17.666 -1.66699 24.999 -3zM391.002 830c12 8 27.666 12.002 46.999 12.002c18.667 0 33.167 -2.66699 43.5 -8
s15.5 -20.333 15.5 -45c0 -22 -3.66699 -36.333 -11 -43s-23.333 -10 -48 -10c-23.333 0 -38.666 3.83301 -45.999 11.5s-11 21.5 -11 41.5c0 7.33301 0.833008 14.666 2.5 21.999s4.16699 13.666 7.5 18.999zM180.001 830.002c6 4 13.167 7 21.5 9s17.166 3 26.499 3
c18 0 32.333 -2.83301 43 -8.5s16 -20.5 16 -44.5c0 -22 -4 -36.333 -12 -43s-23.667 -10 -47 -10c-25.333 0 -41.166 4.5 -47.499 13.5s-9.5 22.167 -9.5 39.5c0 15.333 3 29 9 41z" />
    <glyph glyph-name="Yacute" unicode="&#xdd;" horiz-adv-x="503" 
d="M303 454l90.9971 229c12.667 3.33301 28 5 46 5s35 -2.66699 51 -8l5 -7l-190 -454v-219c-15.333 -2.66699 -33.666 -4 -54.999 -4s-38.666 1.33301 -51.999 4v221l-190 450c22.667 12.667 43 19 61 19s31.333 -3.5 40 -10.5s16.334 -18.833 23.001 -35.5l79 -192
c13.333 -33.333 27.333 -75 42 -125h5c7.33301 26.667 22 69 44 127zM155.997 782l203 119.998c10 -7.33301 19.667 -19.166 29 -35.499s15 -32.5 17 -48.5l-218 -90c-7.33301 4.66699 -14 12.334 -20 23.001s-9.66699 21 -11 31z" />
    <glyph glyph-name="Thorn" unicode="&#xde;" horiz-adv-x="571" 
d="M91 0v682.998c6.66699 1.33301 14.667 2.33301 24 3s18.666 1 27.999 1c10 0 19.667 -0.333008 29 -1s17.666 -1.66699 24.999 -3v-102c22.667 0.666992 42.667 1.16699 60 1.5s32 0.5 44 0.5c34.667 0 66.167 -4.66699 94.5 -14s52.5 -23.166 72.5 -41.499
s35.5 -41 46.5 -68s16.5 -58.5 16.5 -94.5s-5.5 -67.667 -16.5 -95s-26.5 -50.166 -46.5 -68.499s-44.167 -32.333 -72.5 -42s-59.833 -14.5 -94.5 -14.5h-104v-145c-7.33301 -1.33301 -15.666 -2.33301 -24.999 -3s-19 -1 -29 -1c-9.33301 0 -18.666 0.333008 -27.999 1
s-17.333 1.66699 -24 3zM197 228.998l99.9961 1c22.667 0 41.834 3.66699 57.501 11s28.334 17 38.001 29s16.667 26 21 42s6.5 33.333 6.5 52c0 18 -2.16699 35.167 -6.5 51.5s-11.166 30.5 -20.499 42.5s-21.666 21.667 -36.999 29s-34 11 -56 11h-58
c-17.333 0 -32.333 0.333008 -45 1v-270z" />
    <glyph glyph-name="germandbls" unicode="&#xdf;" horiz-adv-x="627" 
d="M105 0l0.00195312 391l-86 -1c-1.33301 5.33301 -2.33301 11.5 -3 18.5s-1 14.5 -1 22.5c0 7.33301 0.333008 14.666 1 21.999s1.66699 14 3 20l86 -2v35c0 62 19.833 109.667 59.5 143s92.834 50 159.501 50c33.333 0 63.5 -4.66699 90.5 -14s50 -22.666 69 -39.999
s33.667 -38.333 44 -63s15.5 -52 15.5 -82c0 -25.333 -5 -51.333 -15 -78h-2l2 -1c-25.333 -6.66699 -45.333 -16.5 -60 -29.5s-22 -26.833 -22 -41.5c0 -8.66699 2.83301 -17.834 8.5 -27.501s15.167 -20.167 28.5 -31.5l37 -33c49.333 -44 74 -87.333 74 -130
c0 -20.667 -4.5 -39.667 -13.5 -57s-21.333 -32.166 -37 -44.499s-34.334 -22 -56.001 -29s-45.167 -10.5 -70.5 -10.5c-48.667 0 -93 9.66699 -133 29c0.666992 12 4.16699 25.333 10.5 40s14.166 26 23.499 34c14 -8 28 -13.833 42 -17.5s27.667 -5.5 41 -5.5
c23.333 0 43 5.5 59 16.5s24 25.167 24 42.5c-0.666992 9.33301 -3.83398 20 -9.50098 32s-15.834 24.333 -30.501 37l-41 35c-22.667 19.333 -39.334 38.333 -50.001 57s-16 36.667 -16 54c0 24 8.83301 46.833 26.5 68.5s41.5 38.5 71.5 50.5c2.66699 13.333 4 25 4 35
c0 36 -9.83301 65.667 -29.5 89s-48.5 35 -86.5 35c-75.333 0 -113 -41.333 -113 -124v-495c-7.33301 -1.33301 -15.666 -2.33301 -24.999 -3s-18.666 -1 -27.999 -1c-10 0 -19.5 0.333008 -28.5 1s-16.833 1.66699 -23.5 3z" />
    <glyph glyph-name="agrave" unicode="&#xe0;" horiz-adv-x="507" 
d="M461 46c-8 -24 -21 -41.668 -39 -53.001c-39.333 7.33301 -66 28 -80 62c-47.333 -45.333 -96 -68 -146 -68c-25.333 0 -47.5 4 -66.5 12s-35 18.833 -48 32.5s-22.667 29.334 -29 47.001s-9.5 36.167 -9.5 55.5c0 54.667 17.5 96 52.5 124s81.5 42 139.5 42
c16.667 0 33 -0.5 49 -1.5s31.667 -2.83301 47 -5.5v39c0 59.333 -27.333 89 -82 89c-38 0 -90.333 -12.667 -157 -38c-19.333 16.667 -29.333 41.667 -30 75c68 30.667 137 46 207 46c52 0 92.333 -13.833 121 -41.5s43 -69.5 43 -125.5v-205c0 -41.333 9.33301 -70 28 -86
zM213 68.999c42.667 0 82 20 118 60v95c-13.333 1.33301 -27.333 2.33301 -42 3s-30 1 -46 1c-30.667 0 -54.5 -7.5 -71.5 -22.5s-25.5 -34.833 -25.5 -59.5c0 -24 6 -42.833 18 -56.5s28.333 -20.5 49 -20.5zM184 738.999l144 -159.001c-9.33301 -22 -24.333 -36 -45 -42
l-171 133c5.33301 14.667 14.833 28.334 28.5 41.001s28.167 21.667 43.5 27z" />
    <glyph glyph-name="aacute" unicode="&#xe1;" horiz-adv-x="507" 
d="M461 46c-8 -24 -21 -41.668 -39 -53.001c-39.333 7.33301 -66 28 -80 62c-47.333 -45.333 -96 -68 -146 -68c-25.333 0 -47.5 4 -66.5 12s-35 18.833 -48 32.5s-22.667 29.334 -29 47.001s-9.5 36.167 -9.5 55.5c0 54.667 17.5 96 52.5 124s81.5 42 139.5 42
c16.667 0 33 -0.5 49 -1.5s31.667 -2.83301 47 -5.5v39c0 59.333 -27.333 89 -82 89c-38 0 -90.333 -12.667 -157 -38c-19.333 16.667 -29.333 41.667 -30 75c68 30.667 137 46 207 46c52 0 92.333 -13.833 121 -41.5s43 -69.5 43 -125.5v-205c0 -41.333 9.33301 -70 28 -86
zM213 68.999c42.667 0 82 20 118 60v95c-13.333 1.33301 -27.333 2.33301 -42 3s-30 1 -46 1c-30.667 0 -54.5 -7.5 -71.5 -22.5s-25.5 -34.833 -25.5 -59.5c0 -24 6 -42.833 18 -56.5s28.333 -20.5 49 -20.5zM169 579.999l144 159.001c15.333 -5.33301 30 -14.333 44 -27
s23.667 -26.334 29 -41.001l-171 -133c-9.33301 2.66699 -18.333 8 -27 16s-15 16.667 -19 26z" />
    <glyph glyph-name="acircumflex" unicode="&#xe2;" horiz-adv-x="507" 
d="M461 46c-8 -24 -21 -41.668 -39 -53.001c-39.333 7.33301 -66 28 -80 62c-47.333 -45.333 -96 -68 -146 -68c-25.333 0 -47.5 4 -66.5 12s-35 18.833 -48 32.5s-22.667 29.334 -29 47.001s-9.5 36.167 -9.5 55.5c0 54.667 17.5 96 52.5 124s81.5 42 139.5 42
c16.667 0 33 -0.5 49 -1.5s31.667 -2.83301 47 -5.5v39c0 59.333 -27.333 89 -82 89c-38 0 -90.333 -12.667 -157 -38c-19.333 16.667 -29.333 41.667 -30 75c68 30.667 137 46 207 46c52 0 92.333 -13.833 121 -41.5s43 -69.5 43 -125.5v-205c0 -41.333 9.33301 -70 28 -86
zM213 68.999c42.667 0 82 20 118 60v95c-13.333 1.33301 -27.333 2.33301 -42 3s-30 1 -46 1c-30.667 0 -54.5 -7.5 -71.5 -22.5s-25.5 -34.833 -25.5 -59.5c0 -24 6 -42.833 18 -56.5s28.333 -20.5 49 -20.5zM340 545.999l-93 91l-100 -96c-20.667 8 -36.667 22.333 -48 43
l106 133c25.333 8.66699 54.333 9 87 1l98 -126c-10 -22 -26.667 -37.333 -50 -46z" />
    <glyph glyph-name="atilde" unicode="&#xe3;" horiz-adv-x="507" 
d="M461 46c-8 -24 -21 -41.668 -39 -53.001c-39.333 7.33301 -66 28 -80 62c-47.333 -45.333 -96 -68 -146 -68c-25.333 0 -47.5 4 -66.5 12s-35 18.833 -48 32.5s-22.667 29.334 -29 47.001s-9.5 36.167 -9.5 55.5c0 54.667 17.5 96 52.5 124s81.5 42 139.5 42
c16.667 0 33 -0.5 49 -1.5s31.667 -2.83301 47 -5.5v39c0 59.333 -27.333 89 -82 89c-38 0 -90.333 -12.667 -157 -38c-19.333 16.667 -29.333 41.667 -30 75c68 30.667 137 46 207 46c52 0 92.333 -13.833 121 -41.5s43 -69.5 43 -125.5v-205c0 -41.333 9.33301 -70 28 -86
zM213 68.999c42.667 0 82 20 118 60v95c-13.333 1.33301 -27.333 2.33301 -42 3s-30 1 -46 1c-30.667 0 -54.5 -7.5 -71.5 -22.5s-25.5 -34.833 -25.5 -59.5c0 -24 6 -42.833 18 -56.5s28.333 -20.5 49 -20.5zM256 570.999l-55.001 26.999
c-4.66699 2.66699 -9.5 4.83398 -14.5 6.50098s-10.167 2.5 -15.5 2.5c-15.333 0.666992 -29 -7.66602 -41 -24.999l-11 -14c-10 0 -20 3 -30 9s-17 13.667 -21 23l9 20c22 48.667 55.333 73 100 73c18 0 37 -5 57 -15l55 -28
c4.66699 -2.66699 9.33398 -4.83398 14.001 -6.50098s9.66699 -2.5 15 -2.5c6.66699 0 13.5 1.83301 20.5 5.5s14.167 10.5 21.5 20.5l11 14c10 0 20 -3.16699 30 -9.5s17 -13.833 21 -22.5l-9 -20c-22 -48.667 -55.333 -73 -100 -73c-17.333 0 -36.333 5 -57 15z" />
    <glyph glyph-name="adieresis" unicode="&#xe4;" horiz-adv-x="507" 
d="M461 46c-8 -24 -21 -41.668 -39 -53.001c-39.333 7.33301 -66 28 -80 62c-47.333 -45.333 -96 -68 -146 -68c-25.333 0 -47.5 4 -66.5 12s-35 18.833 -48 32.5s-22.667 29.334 -29 47.001s-9.5 36.167 -9.5 55.5c0 54.667 17.5 96 52.5 124s81.5 42 139.5 42
c16.667 0 33 -0.5 49 -1.5s31.667 -2.83301 47 -5.5v39c0 59.333 -27.333 89 -82 89c-38 0 -90.333 -12.667 -157 -38c-19.333 16.667 -29.333 41.667 -30 75c68 30.667 137 46 207 46c52 0 92.333 -13.833 121 -41.5s43 -69.5 43 -125.5v-205c0 -41.333 9.33301 -70 28 -86
zM213 68.999c42.667 0 82 20 118 60v95c-13.333 1.33301 -27.333 2.33301 -42 3s-30 1 -46 1c-30.667 0 -54.5 -7.5 -71.5 -22.5s-25.5 -34.833 -25.5 -59.5c0 -24 6 -42.833 18 -56.5s28.333 -20.5 49 -20.5zM290 572.999c-3.33301 6 -5.5 12.332 -6.5 18.999
s-1.5 13.334 -1.5 20.001c0 21.333 4 35.333 12 42s22.667 10 44 10c19.333 0 33.5 -2.66699 42.5 -8s13.5 -20 13.5 -44c0 -22 -3.83301 -36 -11.5 -42s-22.167 -9 -43.5 -9c-20 0 -36.333 4 -49 12zM104 572.998c-3.33301 5.33301 -5.5 11.332 -6.5 17.999
s-1.5 13.667 -1.5 21c0 22 5 36.167 15 42.5s23.667 9.5 41 9.5c20.667 0 35.167 -3.33301 43.5 -10s12.5 -20.667 12.5 -42s-4.16699 -35.166 -12.5 -41.499s-23.166 -9.5 -44.499 -9.5c-20.667 0 -36.334 4 -47.001 12z" />
    <glyph glyph-name="aring" unicode="&#xe5;" horiz-adv-x="507" 
d="M461 46c-8 -24 -21 -41.668 -39 -53.001c-39.333 7.33301 -66 28 -80 62c-47.333 -45.333 -96 -68 -146 -68c-25.333 0 -47.5 4 -66.5 12s-35 18.833 -48 32.5s-22.667 29.334 -29 47.001s-9.5 36.167 -9.5 55.5c0 54.667 17.5 96 52.5 124s81.5 42 139.5 42
c16.667 0 33 -0.5 49 -1.5s31.667 -2.83301 47 -5.5v39c0 59.333 -27.333 89 -82 89c-38 0 -90.333 -12.667 -157 -38c-19.333 16.667 -29.333 41.667 -30 75c68 30.667 137 46 207 46c52 0 92.333 -13.833 121 -41.5s43 -69.5 43 -125.5v-205c0 -41.333 9.33301 -70 28 -86
zM213 68.999c42.667 0 82 20 118 60v95c-13.333 1.33301 -27.333 2.33301 -42 3s-30 1 -46 1c-30.667 0 -54.5 -7.5 -71.5 -22.5s-25.5 -34.833 -25.5 -59.5c0 -24 6 -42.833 18 -56.5s28.333 -20.5 49 -20.5zM245 538.999c-17.333 0 -33.502 3 -48.502 9
s-27.833 14.167 -38.5 24.5s-19 22.333 -25 36s-9 28.167 -9 43.5c0 16 3 31 9 45s14.333 26 25 36s23.334 18 38.001 24s31 9 49 9s34.333 -3 49 -9s27.334 -14 38.001 -24s19 -22 25 -36s9 -29 9 -45c0 -15.333 -3 -29.833 -9 -43.5s-14.5 -25.667 -25.5 -36
s-23.833 -18.5 -38.5 -24.5s-30.667 -9 -48 -9zM208.998 690.999c-5.33301 -5.33301 -9 -11.333 -11 -18s-3 -13.667 -3 -21c0 -15.333 4.5 -28.166 13.5 -38.499s21.167 -15.5 36.5 -15.5c14.667 0 26.667 5.16699 36 15.5s14 23.166 14 38.499s-4.66699 28.333 -14 39
s-21.333 16 -36 16s-26.667 -5.33301 -36 -16z" />
    <glyph glyph-name="ae" unicode="&#xe6;" horiz-adv-x="781" 
d="M726 214l-291 -0.00195312c2 -45.333 11.5 -80.5 28.5 -105.5s46.167 -37.5 87.5 -37.5s87 13 137 39c17.333 -16.667 28 -39 32 -67c-51.333 -37.333 -114.333 -56 -189 -56c-74 0 -127.667 27.667 -161 83c-53.333 -55.333 -113 -83 -179 -83
c-23.333 0 -44.166 3.83301 -62.499 11.5s-33.833 18.334 -46.5 32.001s-22.334 29.5 -29.001 47.5s-10 37 -10 57c0 54.667 17.5 95.834 52.5 123.501s81.5 41.5 139.5 41.5c17.333 0 33.833 -0.5 49.5 -1.5s31.167 -2.83301 46.5 -5.5v40c0 58.667 -27 88 -81 88
c-41.333 0 -94 -12.667 -158 -38c-19.333 16.667 -29.333 41.667 -30 75c68 30.667 134 46 198 46s109.333 -20.333 136 -61c36 42.667 84 64 144 64c30 0 56.833 -5.33301 80.5 -16s44 -25.5 61 -44.5s30 -41.667 39 -68s13.5 -54.833 13.5 -85.5
c0 -14 -0.666992 -27.5 -2 -40.5s-3.33301 -25.833 -6 -38.5zM213 68.998c50 0 93.001 23 129.001 69c-6 24.667 -10 53 -12 85c-12 1.33301 -25 2.5 -39 3.5s-29.333 1.5 -46 1.5c-32.667 0 -57.334 -7.5 -74.001 -22.5s-25 -34.833 -25 -59.5c0 -24 6 -42.833 18 -56.5
s28.333 -20.5 49 -20.5zM536.001 429.998c-62.667 0 -96.333 -47 -101 -141h199v12c0 38 -7.83301 69 -23.5 93s-40.5 36 -74.5 36z" />
    <glyph glyph-name="ccedilla" unicode="&#xe7;" horiz-adv-x="471" 
d="M195 -74c4 18.667 11.002 39.6709 21.002 63.0039c-28 3.33301 -52.667 12 -74 26s-39.333 32 -54 54s-25.667 47.5 -33 76.5s-11 60.167 -11 93.5c0 45.333 5.66699 84.833 17 118.5s26.5 61.5 45.5 83.5s41 38.5 66 49.5s51.5 16.5 79.5 16.5
c28.667 0 54.167 -4.33301 76.5 -13s41.333 -20 57 -34s27.667 -30.167 36 -48.5s12.5 -36.833 12.5 -55.5c0 -38 -17.333 -57 -52 -57c-17.333 0 -31.666 1.33301 -42.999 4v11c0 75.333 -29.333 113 -88 113c-32 0 -56.667 -15.333 -74 -46s-26 -76.334 -26 -137.001
c0 -114.667 37.667 -172 113 -172c37.333 0 77.666 16.667 120.999 50c9.33301 -5.33301 18.333 -14 27 -26s14.334 -23.667 17.001 -35c-40.667 -40.667 -90.334 -64.667 -149.001 -72c-6.66699 -12.667 -10.334 -21.334 -11.001 -26.001c28 -1.33301 50.5 -10 67.5 -26
s25.5 -37.333 25.5 -64c0 -14 -3.16699 -26.833 -9.5 -38.5s-14.833 -21.667 -25.5 -30s-23.167 -15 -37.5 -20s-29.5 -7.5 -45.5 -7.5c-32.667 0 -59.667 6.66699 -81 20c1.33301 20 8.33301 37.333 21 52c14.667 -9.33301 30 -14 46 -14
c17.333 0 29.666 3.66699 36.999 11s11 16.666 11 27.999c0 13.333 -4.5 23.166 -13.5 29.499s-18.833 9.5 -29.5 9.5c-7.33301 0 -15 -1.66699 -23 -5c-9.33301 4 -15 10 -17 18z" />
    <glyph glyph-name="egrave" unicode="&#xe8;" horiz-adv-x="500" 
d="M444 214l-294 0.000976562c2 -46 11.833 -81.333 29.5 -106s47.5 -37 89.5 -37c20 0 41.5 3 64.5 9s46.833 15.667 71.5 29c16.667 -15.333 27.667 -37.333 33 -66c-53.333 -37.333 -116 -56 -188 -56c-38 0 -70 6.66699 -96 20s-47.167 31.666 -63.5 54.999
s-28.166 51.166 -35.499 83.499s-11 67.166 -11 104.499c0 36.667 4.66699 70.834 14 102.501s22.666 58.834 39.999 81.501s38.833 40.5 64.5 53.5s54.5 19.5 86.5 19.5s60.5 -5.33301 85.5 -16s46.167 -25.5 63.5 -44.5s30.5 -41.667 39.5 -68s13.5 -54.833 13.5 -85.5
c0 -13.333 -0.5 -26.5 -1.5 -39.5s-2.83301 -26.167 -5.5 -39.5zM252 430.001c-63.333 0 -97.333 -47 -102 -141h202v13c0 38 -8.16699 68.833 -24.5 92.5s-41.5 35.5 -75.5 35.5zM195 739.001l144 -159.001c-9.33301 -22 -24.333 -36 -45 -42l-171 133
c5.33301 14.667 14.833 28.334 28.5 41.001s28.167 21.667 43.5 27z" />
    <glyph glyph-name="eacute" unicode="&#xe9;" horiz-adv-x="500" 
d="M444 214l-294 0.000976562c2 -46 11.833 -81.333 29.5 -106s47.5 -37 89.5 -37c20 0 41.5 3 64.5 9s46.833 15.667 71.5 29c16.667 -15.333 27.667 -37.333 33 -66c-53.333 -37.333 -116 -56 -188 -56c-38 0 -70 6.66699 -96 20s-47.167 31.666 -63.5 54.999
s-28.166 51.166 -35.499 83.499s-11 67.166 -11 104.499c0 36.667 4.66699 70.834 14 102.501s22.666 58.834 39.999 81.501s38.833 40.5 64.5 53.5s54.5 19.5 86.5 19.5s60.5 -5.33301 85.5 -16s46.167 -25.5 63.5 -44.5s30.5 -41.667 39.5 -68s13.5 -54.833 13.5 -85.5
c0 -13.333 -0.5 -26.5 -1.5 -39.5s-2.83301 -26.167 -5.5 -39.5zM252 430.001c-63.333 0 -97.333 -47 -102 -141h202v13c0 38 -8.16699 68.833 -24.5 92.5s-41.5 35.5 -75.5 35.5zM180 580.001l144 159.001c15.333 -5.33301 30 -14.333 44 -27s23.667 -26.334 29 -41.001
l-171 -133c-9.33301 2.66699 -18.333 8 -27 16s-15 16.667 -19 26z" />
    <glyph glyph-name="ecircumflex" unicode="&#xea;" horiz-adv-x="500" 
d="M444 214l-294 0.000976562c2 -46 11.833 -81.333 29.5 -106s47.5 -37 89.5 -37c20 0 41.5 3 64.5 9s46.833 15.667 71.5 29c16.667 -15.333 27.667 -37.333 33 -66c-53.333 -37.333 -116 -56 -188 -56c-38 0 -70 6.66699 -96 20s-47.167 31.666 -63.5 54.999
s-28.166 51.166 -35.499 83.499s-11 67.166 -11 104.499c0 36.667 4.66699 70.834 14 102.501s22.666 58.834 39.999 81.501s38.833 40.5 64.5 53.5s54.5 19.5 86.5 19.5s60.5 -5.33301 85.5 -16s46.167 -25.5 63.5 -44.5s30.5 -41.667 39.5 -68s13.5 -54.833 13.5 -85.5
c0 -13.333 -0.5 -26.5 -1.5 -39.5s-2.83301 -26.167 -5.5 -39.5zM252 430.001c-63.333 0 -97.333 -47 -102 -141h202v13c0 38 -8.16699 68.833 -24.5 92.5s-41.5 35.5 -75.5 35.5zM350 546.001l-93 91l-100 -96c-20.667 8 -36.667 22.333 -48 43l106 133
c25.333 8.66699 54.333 9 87 1l98 -126c-10 -22 -26.667 -37.333 -50 -46z" />
    <glyph glyph-name="edieresis" unicode="&#xeb;" horiz-adv-x="500" 
d="M444 214l-294 0.000976562c2 -46 11.833 -81.333 29.5 -106s47.5 -37 89.5 -37c20 0 41.5 3 64.5 9s46.833 15.667 71.5 29c16.667 -15.333 27.667 -37.333 33 -66c-53.333 -37.333 -116 -56 -188 -56c-38 0 -70 6.66699 -96 20s-47.167 31.666 -63.5 54.999
s-28.166 51.166 -35.499 83.499s-11 67.166 -11 104.499c0 36.667 4.66699 70.834 14 102.501s22.666 58.834 39.999 81.501s38.833 40.5 64.5 53.5s54.5 19.5 86.5 19.5s60.5 -5.33301 85.5 -16s46.167 -25.5 63.5 -44.5s30.5 -41.667 39.5 -68s13.5 -54.833 13.5 -85.5
c0 -13.333 -0.5 -26.5 -1.5 -39.5s-2.83301 -26.167 -5.5 -39.5zM252 430.001c-63.333 0 -97.333 -47 -102 -141h202v13c0 38 -8.16699 68.833 -24.5 92.5s-41.5 35.5 -75.5 35.5zM300 573.001c-3.33301 6 -5.5 12.332 -6.5 18.999s-1.5 13.334 -1.5 20.001
c0 21.333 4 35.333 12 42s22.667 10 44 10c19.333 0 33.5 -2.66699 42.5 -8s13.5 -20 13.5 -44c0 -22 -3.83301 -36 -11.5 -42s-22.167 -9 -43.5 -9c-20 0 -36.333 4 -49 12zM114 573c-3.33301 5.33301 -5.5 11.332 -6.5 17.999s-1.5 13.667 -1.5 21c0 22 5 36.167 15 42.5
s23.667 9.5 41 9.5c20.667 0 35.167 -3.33301 43.5 -10s12.5 -20.667 12.5 -42s-4.16699 -35.166 -12.5 -41.499s-23.166 -9.5 -44.499 -9.5c-20.667 0 -36.334 4 -47.001 12z" />
    <glyph glyph-name="igrave" unicode="&#xec;" horiz-adv-x="271" 
d="M195 408l0.00292969 -408c-12.667 -2.66699 -29.834 -4 -51.501 -4s-38.834 1.33301 -51.501 4v366c0 18.667 -3.33301 32 -10 40s-18 12 -34 12h-11c-3.33301 14.667 -5 27 -5 37s1.66699 22.667 5 38c22 2.66699 43 4 63 4h14c25.333 0 45.166 -8 59.499 -24
s21.5 -37.667 21.5 -65zM65.0029 739l144 -159.001c-9.33301 -22 -24.333 -36 -45 -42l-171 133c5.33301 14.667 14.833 28.334 28.5 41.001s28.167 21.667 43.5 27z" />
    <glyph glyph-name="iacute" unicode="&#xed;" horiz-adv-x="271" 
d="M195 408l0.00292969 -408c-12.667 -2.66699 -29.834 -4 -51.501 -4s-38.834 1.33301 -51.501 4v366c0 18.667 -3.33301 32 -10 40s-18 12 -34 12h-11c-3.33301 14.667 -5 27 -5 37s1.66699 22.667 5 38c22 2.66699 43 4 63 4h14c25.333 0 45.166 -8 59.499 -24
s21.5 -37.667 21.5 -65zM51.0029 580l144 159.001c15.333 -5.33301 30 -14.333 44 -27s23.667 -26.334 29 -41.001l-171 -133c-9.33301 2.66699 -18.333 8 -27 16s-15 16.667 -19 26z" />
    <glyph glyph-name="icircumflex" unicode="&#xee;" horiz-adv-x="271" 
d="M195 408l0.00292969 -408c-12.667 -2.66699 -29.834 -4 -51.501 -4s-38.834 1.33301 -51.501 4v366c0 18.667 -3.33301 32 -10 40s-18 12 -34 12h-11c-3.33301 14.667 -5 27 -5 37s1.66699 22.667 5 38c22 2.66699 43 4 63 4h14c25.333 0 45.166 -8 59.499 -24
s21.5 -37.667 21.5 -65zM221.003 546l-93 91l-100 -96c-20.667 8 -36.667 22.333 -48 43l106 133c25.333 8.66699 54.333 9 87 1l98 -126c-10 -22 -26.667 -37.333 -50 -46z" />
    <glyph glyph-name="idieresis" unicode="&#xef;" horiz-adv-x="271" 
d="M195 408l0.00292969 -408c-12.667 -2.66699 -29.834 -4 -51.501 -4s-38.834 1.33301 -51.501 4v366c0 18.667 -3.33301 32 -10 40s-18 12 -34 12h-11c-3.33301 14.667 -5 27 -5 37s1.66699 22.667 5 38c22 2.66699 43 4 63 4h14c25.333 0 45.166 -8 59.499 -24
s21.5 -37.667 21.5 -65zM171.003 573c-3.33301 6 -5.5 12.332 -6.5 18.999s-1.5 13.334 -1.5 20.001c0 21.333 4 35.333 12 42s22.667 10 44 10c19.333 0 33.5 -2.66699 42.5 -8s13.5 -20 13.5 -44c0 -22 -3.83301 -36 -11.5 -42s-22.167 -9 -43.5 -9
c-20 0 -36.333 4 -49 12zM-14.9971 572.999c-3.33301 5.33301 -5.5 11.332 -6.5 17.999s-1.5 13.667 -1.5 21c0 22 5 36.167 15 42.5s23.667 9.5 41 9.5c20.667 0 35.167 -3.33301 43.5 -10s12.5 -20.667 12.5 -42s-4.16699 -35.166 -12.5 -41.499
s-23.166 -9.5 -44.499 -9.5c-20.667 0 -36.334 4 -47.001 12z" />
    <glyph glyph-name="eth" unicode="&#xf0;" horiz-adv-x="517" 
d="M111 572l85.999 59.0039c-11.333 9.33301 -23.666 18.166 -36.999 26.499s-27.666 16.5 -42.999 24.5c2 12.667 7 25.5 15 38.5s16.667 22.167 26 27.5c42 -18 80 -40 114 -66l87 60c22 -16.667 34.333 -34.667 37 -54l-73 -50c100.667 -100.667 151 -231.667 151 -393
c0 -38.667 -4.83301 -73.834 -14.5 -105.501s-23.667 -58.834 -42 -81.501s-41 -40.167 -68 -52.5s-57.5 -18.5 -91.5 -18.5c-34.667 0 -65.334 6.33301 -92.001 19s-49.167 30.167 -67.5 52.5s-32.333 48.833 -42 79.5s-14.5 64 -14.5 100s4.83301 69.167 14.5 99.5
s23.5 56.666 41.5 78.999s40 39.666 66 51.999s55.667 18.5 89 18.5c22 0 46 -5.66699 72 -17c-15.333 40.667 -41 79.334 -77 116.001l-99 -69c-20 14.667 -32.667 33 -38 55zM367.999 245.004c0 54 -5.33301 99 -16 135c-29.333 20 -60.333 30 -93 30
c-73.333 0 -110 -57.667 -110 -173c0 -114.667 36.333 -172 109 -172c73.333 0 110 60 110 180z" />
    <glyph glyph-name="ntilde" unicode="&#xf1;" horiz-adv-x="546" 
d="M472 339l0.000976562 -233.002c0 -39.333 5.66699 -69.666 17 -90.999c-17.333 -14.667 -37.666 -22 -60.999 -22c-22.667 0 -38.167 5.5 -46.5 16.5s-12.5 27.5 -12.5 49.5v254c0 34.667 -4.5 59.334 -13.5 74.001s-24.5 22 -46.5 22s-44.5 -5.5 -67.5 -16.5
s-43.167 -26.167 -60.5 -45.5v-347c-11.333 -2.66699 -28.333 -4 -51 -4c-10.667 0 -20.334 0.333008 -29.001 1s-16.334 1.66699 -23.001 3v492l6 6h39c36 0 55 -20.667 57 -62c48.667 44.667 101.667 67 159 67c44.667 0 78 -14.833 100 -44.5s33 -69.5 33 -119.5z
M289.001 570.998l-55.001 26.999c-4.66699 2.66699 -9.5 4.83398 -14.5 6.50098s-10.167 2.5 -15.5 2.5c-15.333 0.666992 -29 -7.66602 -41 -24.999l-11 -14c-10 0 -20 3 -30 9s-17 13.667 -21 23l9 20c22 48.667 55.333 73 100 73c18 0 37 -5 57 -15l55 -28
c4.66699 -2.66699 9.33398 -4.83398 14.001 -6.50098s9.66699 -2.5 15 -2.5c6.66699 0 13.5 1.83301 20.5 5.5s14.167 10.5 21.5 20.5l11 14c10 0 20 -3.16699 30 -9.5s17 -13.833 21 -22.5l-9 -20c-22 -48.667 -55.333 -73 -100 -73c-17.333 0 -36.333 5 -57 15z" />
    <glyph glyph-name="ograve" unicode="&#xf2;" horiz-adv-x="520" 
d="M405 42c-36.667 -36.667 -85.001 -55.001 -145.001 -55.001c-34.667 0 -65.334 6.16699 -92.001 18.5s-49.167 30 -67.5 53s-32.333 50.333 -42 82s-14.5 67.167 -14.5 106.5c0 38.667 4.83301 74 14.5 106s23.667 59.5 42 82.5s40.833 40.667 67.5 53
s57.334 18.5 92.001 18.5s65.334 -6.16699 92.001 -18.5s49.167 -30 67.5 -53s32.333 -50.5 42 -82.5s14.5 -67.333 14.5 -106c0 -89.333 -23.667 -157.666 -71 -204.999zM259.999 427.999c-72.667 0 -109 -60.333 -109 -181s36.333 -181 109 -181
c73.333 0 110 60.333 110 181s-36.667 181 -110 181zM198.999 738.999l144 -159.001c-9.33301 -22 -24.333 -36 -45 -42l-171 133c5.33301 14.667 14.833 28.334 28.5 41.001s28.167 21.667 43.5 27z" />
    <glyph glyph-name="oacute" unicode="&#xf3;" horiz-adv-x="520" 
d="M405 42c-36.667 -36.667 -85.001 -55.001 -145.001 -55.001c-34.667 0 -65.334 6.16699 -92.001 18.5s-49.167 30 -67.5 53s-32.333 50.333 -42 82s-14.5 67.167 -14.5 106.5c0 38.667 4.83301 74 14.5 106s23.667 59.5 42 82.5s40.833 40.667 67.5 53
s57.334 18.5 92.001 18.5s65.334 -6.16699 92.001 -18.5s49.167 -30 67.5 -53s32.333 -50.5 42 -82.5s14.5 -67.333 14.5 -106c0 -89.333 -23.667 -157.666 -71 -204.999zM259.999 427.999c-72.667 0 -109 -60.333 -109 -181s36.333 -181 109 -181
c73.333 0 110 60.333 110 181s-36.667 181 -110 181zM183.999 579.999l144 159.001c15.333 -5.33301 30 -14.333 44 -27s23.667 -26.334 29 -41.001l-171 -133c-9.33301 2.66699 -18.333 8 -27 16s-15 16.667 -19 26z" />
    <glyph glyph-name="ocircumflex" unicode="&#xf4;" horiz-adv-x="520" 
d="M405 42c-36.667 -36.667 -85.001 -55.001 -145.001 -55.001c-34.667 0 -65.334 6.16699 -92.001 18.5s-49.167 30 -67.5 53s-32.333 50.333 -42 82s-14.5 67.167 -14.5 106.5c0 38.667 4.83301 74 14.5 106s23.667 59.5 42 82.5s40.833 40.667 67.5 53
s57.334 18.5 92.001 18.5s65.334 -6.16699 92.001 -18.5s49.167 -30 67.5 -53s32.333 -50.5 42 -82.5s14.5 -67.333 14.5 -106c0 -89.333 -23.667 -157.666 -71 -204.999zM259.999 427.999c-72.667 0 -109 -60.333 -109 -181s36.333 -181 109 -181
c73.333 0 110 60.333 110 181s-36.667 181 -110 181zM354.999 545.999l-93 91l-100 -96c-20.667 8 -36.667 22.333 -48 43l106 133c25.333 8.66699 54.333 9 87 1l98 -126c-10 -22 -26.667 -37.333 -50 -46z" />
    <glyph glyph-name="otilde" unicode="&#xf5;" horiz-adv-x="520" 
d="M405 42c-36.667 -36.667 -85.001 -55.001 -145.001 -55.001c-34.667 0 -65.334 6.16699 -92.001 18.5s-49.167 30 -67.5 53s-32.333 50.333 -42 82s-14.5 67.167 -14.5 106.5c0 38.667 4.83301 74 14.5 106s23.667 59.5 42 82.5s40.833 40.667 67.5 53
s57.334 18.5 92.001 18.5s65.334 -6.16699 92.001 -18.5s49.167 -30 67.5 -53s32.333 -50.5 42 -82.5s14.5 -67.333 14.5 -106c0 -89.333 -23.667 -157.666 -71 -204.999zM259.999 427.999c-72.667 0 -109 -60.333 -109 -181s36.333 -181 109 -181
c73.333 0 110 60.333 110 181s-36.667 181 -110 181zM270.999 570.999l-55.001 26.999c-4.66699 2.66699 -9.5 4.83398 -14.5 6.50098s-10.167 2.5 -15.5 2.5c-15.333 0.666992 -29 -7.66602 -41 -24.999l-11 -14c-10 0 -20 3 -30 9s-17 13.667 -21 23l9 20
c22 48.667 55.333 73 100 73c18 0 37 -5 57 -15l55 -28c4.66699 -2.66699 9.33398 -4.83398 14.001 -6.50098s9.66699 -2.5 15 -2.5c6.66699 0 13.5 1.83301 20.5 5.5s14.167 10.5 21.5 20.5l11 14c10 0 20 -3.16699 30 -9.5s17 -13.833 21 -22.5l-9 -20
c-22 -48.667 -55.333 -73 -100 -73c-17.333 0 -36.333 5 -57 15z" />
    <glyph glyph-name="odieresis" unicode="&#xf6;" horiz-adv-x="520" 
d="M405 42c-36.667 -36.667 -85.001 -55.001 -145.001 -55.001c-34.667 0 -65.334 6.16699 -92.001 18.5s-49.167 30 -67.5 53s-32.333 50.333 -42 82s-14.5 67.167 -14.5 106.5c0 38.667 4.83301 74 14.5 106s23.667 59.5 42 82.5s40.833 40.667 67.5 53
s57.334 18.5 92.001 18.5s65.334 -6.16699 92.001 -18.5s49.167 -30 67.5 -53s32.333 -50.5 42 -82.5s14.5 -67.333 14.5 -106c0 -89.333 -23.667 -157.666 -71 -204.999zM259.999 427.999c-72.667 0 -109 -60.333 -109 -181s36.333 -181 109 -181
c73.333 0 110 60.333 110 181s-36.667 181 -110 181zM304.999 572.999c-3.33301 6 -5.5 12.332 -6.5 18.999s-1.5 13.334 -1.5 20.001c0 21.333 4 35.333 12 42s22.667 10 44 10c19.333 0 33.5 -2.66699 42.5 -8s13.5 -20 13.5 -44c0 -22 -3.83301 -36 -11.5 -42
s-22.167 -9 -43.5 -9c-20 0 -36.333 4 -49 12zM118.999 572.998c-3.33301 5.33301 -5.5 11.332 -6.5 17.999s-1.5 13.667 -1.5 21c0 22 5 36.167 15 42.5s23.667 9.5 41 9.5c20.667 0 35.167 -3.33301 43.5 -10s12.5 -20.667 12.5 -42s-4.16699 -35.166 -12.5 -41.499
s-23.166 -9.5 -44.499 -9.5c-20.667 0 -36.334 4 -47.001 12z" />
    <glyph glyph-name="divide" unicode="&#xf7;" 
d="M213 429c-6 12 -9 25.6641 -9 40.9971s3 30 9 44c14 8 31.667 12 53 12c12 0 22 -1 30 -3s14.167 -4.66699 18.5 -8s7.33301 -8.66602 9 -15.999s2.5 -17 2.5 -29c-2 -25.333 -6.33301 -40.166 -13 -44.499s-22.667 -7.16602 -48 -8.49902c-24 0 -41.333 4 -52 12z
M213 71.9971c-6 12.667 -8.99902 27.001 -8.99902 43.001c0 12 1.5 22 4.5 30s7 13.333 12 16s11.333 4.66699 19 6s16.5 2 26.5 2c21.333 -1.33301 36.333 -3.83301 45 -7.5s13.667 -19.167 15 -46.5c0 -8 -0.666992 -15.5 -2 -22.5s-2.83301 -12.833 -4.5 -17.5
s-7.5 -8.33398 -17.5 -11.001s-22 -4 -36 -4c-22.667 0 -40.334 4 -53.001 12zM474.001 249.998h-418c-1.33301 5.33301 -2.33301 11.833 -3 19.5s-1 15.5 -1 23.5c0 17.333 1.33301 32.666 4 45.999h418c2.66699 -13.333 4 -28.666 4 -45.999
c0 -8 -0.333008 -15.833 -1 -23.5s-1.66699 -14.167 -3 -19.5z" />
    <glyph glyph-name="oslash" unicode="&#xf8;" horiz-adv-x="522" 
d="M407 451c46.667 -46.667 70.001 -115 70.001 -205c0 -39.333 -4.83301 -74.833 -14.5 -106.5s-23.667 -58.834 -42 -81.501s-41 -40.167 -68 -52.5s-57.833 -18.5 -92.5 -18.5c-34 0 -64.333 6 -91 18l-36 -61c-25.333 3.33301 -45 14.333 -59 33l38 67
c-44.667 44.667 -67 112.334 -67 203.001c0 39.333 4.83301 75 14.5 107s23.667 59.333 42 82s40.833 40.167 67.5 52.5s57 18.5 91 18.5c33.333 0 63.666 -6 90.999 -18l35 61c25.333 -4 45 -15 59 -33zM359.001 363l-151.001 -287c14.667 -8.66699 32.334 -13 53.001 -13
c21.333 0 39.5 4.83301 54.5 14.5s27.167 22.667 36.5 39s16 35.5 20 57.5s6 45 6 69c0 50.667 -6.33301 90.667 -19 120zM161 134l149.999 285c-16 8 -32.667 12 -50 12c-21.333 0 -39.5 -4.66699 -54.5 -14s-27.167 -22.166 -36.5 -38.499s-16.166 -35.333 -20.499 -57
s-6.5 -44.834 -6.5 -69.501c0 -50 6 -89.333 18 -118z" />
    <glyph glyph-name="ugrave" unicode="&#xf9;" horiz-adv-x="547" 
d="M74 155l-0.000976562 233.002c0 40 -5.66699 70 -17 90c16.667 14.667 38.334 22 65.001 22c36.667 0 55 -21.667 55 -65v-255c0 -34.667 4.33301 -59.334 13 -74.001s24 -22 46 -22s44.333 5.5 67 16.5s43 25.833 61 44.5v349c18.667 2.66699 35.667 4 51 4
s33 -1.33301 53 -4v-354c0 -46.667 9.33301 -78.334 28 -95.001c-7.33301 -24 -20.333 -41.333 -39 -52c-42 7.33301 -70 31.333 -84 72c-52 -49.333 -107.667 -74 -167 -74c-44 0 -77 15 -99 45s-33 69.667 -33 119zM206.999 739.002l144 -159.001
c-9.33301 -22 -24.333 -36 -45 -42l-171 133c5.33301 14.667 14.833 28.334 28.5 41.001s28.167 21.667 43.5 27z" />
    <glyph glyph-name="uacute" unicode="&#xfa;" horiz-adv-x="547" 
d="M74 155l-0.000976562 233.002c0 40 -5.66699 70 -17 90c16.667 14.667 38.334 22 65.001 22c36.667 0 55 -21.667 55 -65v-255c0 -34.667 4.33301 -59.334 13 -74.001s24 -22 46 -22s44.333 5.5 67 16.5s43 25.833 61 44.5v349c18.667 2.66699 35.667 4 51 4
s33 -1.33301 53 -4v-354c0 -46.667 9.33301 -78.334 28 -95.001c-7.33301 -24 -20.333 -41.333 -39 -52c-42 7.33301 -70 31.333 -84 72c-52 -49.333 -107.667 -74 -167 -74c-44 0 -77 15 -99 45s-33 69.667 -33 119zM192.999 580.002l144 159.001
c15.333 -5.33301 30 -14.333 44 -27s23.667 -26.334 29 -41.001l-171 -133c-9.33301 2.66699 -18.333 8 -27 16s-15 16.667 -19 26z" />
    <glyph glyph-name="ucircumflex" unicode="&#xfb;" horiz-adv-x="547" 
d="M74 155l-0.000976562 233.002c0 40 -5.66699 70 -17 90c16.667 14.667 38.334 22 65.001 22c36.667 0 55 -21.667 55 -65v-255c0 -34.667 4.33301 -59.334 13 -74.001s24 -22 46 -22s44.333 5.5 67 16.5s43 25.833 61 44.5v349c18.667 2.66699 35.667 4 51 4
s33 -1.33301 53 -4v-354c0 -46.667 9.33301 -78.334 28 -95.001c-7.33301 -24 -20.333 -41.333 -39 -52c-42 7.33301 -70 31.333 -84 72c-52 -49.333 -107.667 -74 -167 -74c-44 0 -77 15 -99 45s-33 69.667 -33 119zM362.999 546.002l-93 91l-100 -96
c-20.667 8 -36.667 22.333 -48 43l106 133c25.333 8.66699 54.333 9 87 1l98 -126c-10 -22 -26.667 -37.333 -50 -46z" />
    <glyph glyph-name="udieresis" unicode="&#xfc;" horiz-adv-x="547" 
d="M74 155l-0.000976562 233.002c0 40 -5.66699 70 -17 90c16.667 14.667 38.334 22 65.001 22c36.667 0 55 -21.667 55 -65v-255c0 -34.667 4.33301 -59.334 13 -74.001s24 -22 46 -22s44.333 5.5 67 16.5s43 25.833 61 44.5v349c18.667 2.66699 35.667 4 51 4
s33 -1.33301 53 -4v-354c0 -46.667 9.33301 -78.334 28 -95.001c-7.33301 -24 -20.333 -41.333 -39 -52c-42 7.33301 -70 31.333 -84 72c-52 -49.333 -107.667 -74 -167 -74c-44 0 -77 15 -99 45s-33 69.667 -33 119zM312.999 573.002c-3.33301 6 -5.5 12.332 -6.5 18.999
s-1.5 13.334 -1.5 20.001c0 21.333 4 35.333 12 42s22.667 10 44 10c19.333 0 33.5 -2.66699 42.5 -8s13.5 -20 13.5 -44c0 -22 -3.83301 -36 -11.5 -42s-22.167 -9 -43.5 -9c-20 0 -36.333 4 -49 12zM126.999 573.001c-3.33301 5.33301 -5.5 11.332 -6.5 17.999
s-1.5 13.667 -1.5 21c0 22 5 36.167 15 42.5s23.667 9.5 41 9.5c20.667 0 35.167 -3.33301 43.5 -10s12.5 -20.667 12.5 -42s-4.16699 -35.166 -12.5 -41.499s-23.166 -9.5 -44.499 -9.5c-20.667 0 -36.334 4 -47.001 12z" />
    <glyph glyph-name="yacute" unicode="&#xfd;" horiz-adv-x="468" 
d="M456 485l-132 -469c-12 -42 -24.5 -77.833 -37.5 -107.5s-28 -53.834 -45 -72.501s-37 -32.334 -60 -41.001s-49.833 -13 -80.5 -13c-5.33301 0 -13.333 0.333008 -24 1s-21.334 1.83398 -32.001 3.50098s-20 3.66699 -28 6s-12 5.5 -12 9.5c0 11.333 2 24 6 38
s9.66699 24.667 17 32c22 -8.66699 48 -13 78 -13c28.667 0 52 10.167 70 30.5s33.333 51.5 46 93.5l3 12c-21.333 0.666992 -38 4.83398 -50 12.501s-21 21.5 -27 41.5l-132 437c24 10 45 15 63 15c26 0 43.333 -15.333 52 -46l68 -230c3.33301 -10.667 8 -28.167 14 -52.5
l23 -94.5c0.666992 -4.66699 3.66699 -7 9 -7l110 423c5.33301 1.33301 11.5 2.33301 18.5 3s14.833 1 23.5 1c9.33301 0 18.833 -0.5 28.5 -1.5s18.834 -2.83301 27.501 -5.5zM158 580l144 159.001c15.333 -5.33301 30 -14.333 44 -27s23.667 -26.334 29 -41.001l-171 -133
c-9.33301 2.66699 -18.333 8 -27 16s-15 16.667 -19 26z" />
    <glyph glyph-name="thorn" unicode="&#xfe;" horiz-adv-x="528" 
d="M294 -9c-38.667 0 -77.333 11.002 -116 33.002v-173c0 -24 -4 -41 -12 -51s-22.667 -15 -44 -15h-38l-6 6v938l6 6h38c21.333 0 36 -5 44 -15s12 -27 12 -51v-223c39.333 37.333 84.666 56 135.999 56c53.333 0 95 -22.833 125 -68.5s45 -108.167 45 -187.5
c0 -40 -5.16699 -75.833 -15.5 -107.5s-24.166 -58.334 -41.499 -80.001s-37.5 -38.334 -60.5 -50.001s-47.167 -17.5 -72.5 -17.5zM288.001 416.002c-43.333 0 -80 -21.667 -110 -65v-241c37.333 -24 70 -36 98 -36c31.333 0 56.333 15.167 75 45.5s28 73.833 28 130.5
s-8.66699 98.5 -26 125.5s-39 40.5 -65 40.5z" />
    <glyph glyph-name="ydieresis" unicode="&#xff;" horiz-adv-x="468" 
d="M456 485l-132 -469c-12 -42 -24.5 -77.833 -37.5 -107.5s-28 -53.834 -45 -72.501s-37 -32.334 -60 -41.001s-49.833 -13 -80.5 -13c-5.33301 0 -13.333 0.333008 -24 1s-21.334 1.83398 -32.001 3.50098s-20 3.66699 -28 6s-12 5.5 -12 9.5c0 11.333 2 24 6 38
s9.66699 24.667 17 32c22 -8.66699 48 -13 78 -13c28.667 0 52 10.167 70 30.5s33.333 51.5 46 93.5l3 12c-21.333 0.666992 -38 4.83398 -50 12.501s-21 21.5 -27 41.5l-132 437c24 10 45 15 63 15c26 0 43.333 -15.333 52 -46l68 -230c3.33301 -10.667 8 -28.167 14 -52.5
l23 -94.5c0.666992 -4.66699 3.66699 -7 9 -7l110 423c5.33301 1.33301 11.5 2.33301 18.5 3s14.833 1 23.5 1c9.33301 0 18.833 -0.5 28.5 -1.5s18.834 -2.83301 27.501 -5.5zM278 573c-3.33301 6 -5.5 12.332 -6.5 18.999s-1.5 13.334 -1.5 20.001
c0 21.333 4 35.333 12 42s22.667 10 44 10c19.333 0 33.5 -2.66699 42.5 -8s13.5 -20 13.5 -44c0 -22 -3.83301 -36 -11.5 -42s-22.167 -9 -43.5 -9c-20 0 -36.333 4 -49 12zM92 572.999c-3.33301 5.33301 -5.5 11.332 -6.5 17.999s-1.5 13.667 -1.5 21
c0 22 5 36.167 15 42.5s23.667 9.5 41 9.5c20.667 0 35.167 -3.33301 43.5 -10s12.5 -20.667 12.5 -42s-4.16699 -35.166 -12.5 -41.499s-23.166 -9.5 -44.499 -9.5c-20.667 0 -36.334 4 -47.001 12z" />
    <glyph glyph-name="Aogonek" unicode="&#x104;" horiz-adv-x="611" 
d="M232 165l-58.0039 0.00292969l-53 -166c-5.33301 -1.33301 -11.666 -2.33301 -18.999 -3s-15 -1 -23 -1c-9.33301 0 -18.666 0.5 -27.999 1.5s-18.666 2.83301 -27.999 5.5l-3 5l226 676c12.667 2.66699 33 4 61 4c28.667 0 48.667 -1.33301 60 -4l224 -676
c-58.667 -36.667 -88 -73.334 -88 -110.001c0 -14 4.5 -25.167 13.5 -33.5s21.167 -12.5 36.5 -12.5c17.333 0 36.333 5.66699 57 17c14.667 -10.667 22.667 -27.334 24 -50.001c-27.333 -23.333 -59.666 -35 -96.999 -35c-38 0 -67 8.33301 -87 25s-30 39.334 -30 68.001
c0 43.333 24 85.666 72 126.999c-10 7.33301 -18.667 22.666 -26 45.999l-37 117l-60 -1h-137zM200.996 252.003l151 1c13.333 -0.666992 30 -1 50 -1l-46 145l-31 101.5c-8.66699 29.667 -16 56.167 -22 79.5h-5l-16 -64c-6 -24 -13.667 -51 -23 -81z" />
    <glyph glyph-name="aogonek" unicode="&#x105;" horiz-adv-x="537" 
d="M466 -132c14.667 -10.667 22.666 -27.335 23.999 -50.002c-27.333 -23.333 -59.666 -35 -96.999 -35c-38 0 -66.833 8.33301 -86.5 25s-29.5 39.334 -29.5 68.001c0 52.667 30.667 100.667 92 144c-11.333 11.333 -20 23.333 -26 36c-47.333 -46 -96.333 -69 -147 -69
c-25.333 0 -47.5 4 -66.5 12s-35 18.833 -48 32.5s-22.667 29.334 -29 47.001s-9.5 36.167 -9.5 55.5c0 54.667 17.5 96 52.5 124s81.5 42 139.5 42c16.667 0 33 -0.5 49 -1.5s31.667 -2.83301 47 -5.5v39c0 59.333 -27.333 89 -82 89c-38 0 -90.333 -12.667 -157 -38
c-19.333 16.667 -29.333 41.667 -30 75c68 30.667 137 46 207 46c52 0 92.333 -13.833 121 -41.5s43 -69.5 43 -125.5v-205c0 -38.667 10.667 -66.667 32 -84c-6 -19.333 -21 -39 -45 -59c-40.667 -34 -61 -64.667 -61 -92c0 -14 4.5 -25.167 13.5 -33.5
s21.167 -12.5 36.5 -12.5c17.333 0 36.333 5.66699 57 17zM212.999 68.999c42.667 0 82 20 118 60v95c-13.333 1.33301 -27.333 2.33301 -42 3s-30 1 -46 1c-30.667 0 -54.5 -7.5 -71.5 -22.5s-25.5 -34.833 -25.5 -59.5c0 -24 6 -42.833 18 -56.5s28.333 -20.5 49 -20.5z
" />
    <glyph glyph-name="Cacute" unicode="&#x106;" horiz-adv-x="604" 
d="M460 447c0 21.333 -2.49902 41.834 -7.49902 61.501s-13.167 37 -24.5 52s-26 27 -44 36s-40 13.5 -66 13.5c-51.333 0 -90.333 -23 -117 -69s-40 -112 -40 -198c0 -85.333 14.333 -150.5 43 -195.5s71 -67.5 127 -67.5s114.333 25.333 175 76c27.333 -18 45 -41 53 -69
c-14.667 -14.667 -31.5 -28 -50.5 -40s-39 -22.5 -60 -31.5s-42.667 -16 -65 -21s-44.166 -7.5 -65.499 -7.5c-51.333 0 -94.333 9.83301 -129 29.5s-61.834 45.667 -81.501 78s-34.334 69.666 -44.001 111.999s-14.5 86.166 -14.5 131.499c0 60 7 112.333 21 157
s33.167 81.834 57.5 111.501s52.833 52 85.5 67s67.334 22.5 104.001 22.5c38 0 72.167 -5.33301 102.5 -16s56.333 -25 78 -43s38.167 -38.667 49.5 -62s17 -48 17 -74c0 -40 -20 -60 -60 -60c-12.667 0 -27.334 2 -44.001 6zM221.001 782.001l203 119.998
c10 -7.33301 19.667 -19.166 29 -35.499s15 -32.5 17 -48.5l-218 -90c-7.33301 4.66699 -14 12.334 -20 23.001s-9.66699 21 -11 31z" />
    <glyph glyph-name="cacute" unicode="&#x107;" horiz-adv-x="471" 
d="M339 303l-0.000976562 11.001c0 75.333 -29.333 113 -88 113c-32 0 -56.667 -15.333 -74 -46s-26 -76.334 -26 -137.001c0 -114.667 37.667 -172 113 -172c37.333 0 77.666 16.667 120.999 50c9.33301 -5.33301 18.333 -14 27 -26s14.334 -23.667 17.001 -35
c-49.333 -49.333 -109 -74 -179 -74c-35.333 0 -65.833 6.5 -91.5 19.5s-47 31.167 -64 54.5s-29.667 51.333 -38 84s-12.5 68.667 -12.5 108c0 40.667 5.66699 76.834 17 108.501s26.5 58.167 45.5 79.5s41 37.666 66 48.999s51.5 17 79.5 17
c28.667 0 54.167 -4.33301 76.5 -13s41.333 -20 57 -34s27.667 -30.167 36 -48.5s12.5 -36.833 12.5 -55.5c0 -38 -17.333 -57 -52 -57c-17.333 0 -31.666 1.33301 -42.999 4zM175.999 580.001l144 159.001c15.333 -5.33301 30 -14.333 44 -27s23.667 -26.334 29 -41.001
l-171 -133c-9.33301 2.66699 -18.333 8 -27 16s-15 16.667 -19 26z" />
    <glyph glyph-name="Ccaron" unicode="&#x10c;" horiz-adv-x="604" 
d="M460 447c0 21.333 -2.49902 41.834 -7.49902 61.501s-13.167 37 -24.5 52s-26 27 -44 36s-40 13.5 -66 13.5c-51.333 0 -90.333 -23 -117 -69s-40 -112 -40 -198c0 -85.333 14.333 -150.5 43 -195.5s71 -67.5 127 -67.5s114.333 25.333 175 76c27.333 -18 45 -41 53 -69
c-14.667 -14.667 -31.5 -28 -50.5 -40s-39 -22.5 -60 -31.5s-42.667 -16 -65 -21s-44.166 -7.5 -65.499 -7.5c-51.333 0 -94.333 9.83301 -129 29.5s-61.834 45.667 -81.501 78s-34.334 69.666 -44.001 111.999s-14.5 86.166 -14.5 131.499c0 60 7 112.333 21 157
s33.167 81.834 57.5 111.501s52.833 52 85.5 67s67.334 22.5 104.001 22.5c38 0 72.167 -5.33301 102.5 -16s56.333 -25 78 -43s38.167 -38.667 49.5 -62s17 -48 17 -74c0 -40 -20 -60 -60 -60c-12.667 0 -27.334 2 -44.001 6zM208.001 892.001l112.001 -74l115 82
c9.33301 -3.33301 18.666 -9.33301 27.999 -18s15.333 -17.667 18 -27l-115 -113c-32 -6.66699 -62.667 -7 -92 -1l-112 106c8 22.667 23.333 37.667 46 45z" />
    <glyph glyph-name="ccaron" unicode="&#x10d;" horiz-adv-x="471" 
d="M339 303l-0.000976562 11.001c0 75.333 -29.333 113 -88 113c-32 0 -56.667 -15.333 -74 -46s-26 -76.334 -26 -137.001c0 -114.667 37.667 -172 113 -172c37.333 0 77.666 16.667 120.999 50c9.33301 -5.33301 18.333 -14 27 -26s14.334 -23.667 17.001 -35
c-49.333 -49.333 -109 -74 -179 -74c-35.333 0 -65.833 6.5 -91.5 19.5s-47 31.167 -64 54.5s-29.667 51.333 -38 84s-12.5 68.667 -12.5 108c0 40.667 5.66699 76.834 17 108.501s26.5 58.167 45.5 79.5s41 37.666 66 48.999s51.5 17 79.5 17
c28.667 0 54.167 -4.33301 76.5 -13s41.333 -20 57 -34s27.667 -30.167 36 -48.5s12.5 -36.833 12.5 -55.5c0 -38 -17.333 -57 -52 -57c-17.333 0 -31.666 1.33301 -42.999 4zM155.999 727.001l93 -91.001l101 97c20 -6.66699 36 -21 48 -43l-107 -134
c-23.333 -9.33301 -52.333 -9.66602 -87 -0.999023l-98 126c11.333 22.667 28 38 50 46z" />
    <glyph glyph-name="Dcaron" unicode="&#x10e;" horiz-adv-x="648" 
d="M491 46c-10 -8 -21.834 -15.1689 -35.501 -21.502s-28.5 -11.666 -44.5 -15.999s-32.167 -7.66602 -48.5 -9.99902s-31.833 -3.5 -46.5 -3.5c-15.333 0 -41 0.333008 -77 1s-83.333 1.66699 -142 3l-6 7v671l6 7c58 2 131.333 3 220 3c54 0 99 -9 135 -27
s64.833 -42.667 86.5 -74s36.834 -68.166 45.501 -110.499s13 -87.5 13 -135.5c0 -66.667 -7.16699 -123.834 -21.5 -171.501s-42.5 -88.5 -84.5 -122.5zM316.999 600.998h-120v-520h120c113.333 0 170 86.667 170 260c0 90.667 -14.167 156.667 -42.5 198
s-70.833 62 -127.5 62zM194.999 891.998l112.001 -74l115 82c9.33301 -3.33301 18.666 -9.33301 27.999 -18s15.333 -17.667 18 -27l-115 -113c-32 -6.66699 -62.667 -7 -92 -1l-112 106c8 22.667 23.333 37.667 46 45z" />
    <glyph glyph-name="dcaron" unicode="&#x10f;" horiz-adv-x="597" 
d="M236 502c36 0 73.6689 -10.999 113.002 -32.999v260l7 6h39c20.667 0 35 -5 43 -15s12 -27 12 -51v-528c0 -46.667 9.33301 -78.334 28 -95.001c-2.66699 -9.33301 -7.66699 -19.333 -15 -30s-15 -18.334 -23 -23.001c-38 7.33301 -64.333 28 -79 62
c-39.333 -45.333 -87.333 -68 -144 -68s-99.667 22.833 -129 68.5s-44 109.167 -44 190.5c0 40.667 5.16699 76.834 15.5 108.501s24.166 58.5 41.499 80.5s37.666 38.667 60.999 50s48 17 74 17zM240.002 73.001c43.333 0 79.666 21 108.999 63v248
c-37.333 24 -69.666 36 -96.999 36c-30 0 -54.667 -15 -74 -45s-29 -74.333 -29 -133c0 -58 8.66699 -100.667 26 -128s39 -41 65 -41zM512.002 566.001l12.002 214.001c13.333 3.33301 29.666 3.66602 48.999 0.999023s34.666 -8 45.999 -16l-47 -204
c-9.33301 -3.33301 -20 -4.5 -32 -3.5s-21.333 3.83301 -28 8.5z" />
    <glyph glyph-name="Eogonek" unicode="&#x118;" horiz-adv-x="570" 
d="M195 138l-1.00293 -51.0029c20 2 42 3 66 3h259c0 -25.333 -2.66699 -44.5 -8 -57.5s-16 -22.833 -32 -29.5c-28 -11.333 -50.333 -26.833 -67 -46.5s-25 -38.167 -25 -55.5c0 -32.667 16 -49 48 -49c18.667 0 38.334 5.33301 59.001 16c15.333 -13.333 23 -30 23 -50
c-27.333 -23.333 -59.666 -35 -96.999 -35c-38 0 -66.833 8.16699 -86.5 24.5s-29.5 39.5 -29.5 69.5c0 46 23.667 86.667 71 122h-224c-18.667 0 -33.5 5.83301 -44.5 17.5s-16.5 27.834 -16.5 48.501v612l7 6h402c2 -10 3 -22.333 3 -37
c0 -9.33301 -0.5 -18.666 -1.5 -27.999s-3.16699 -17.666 -6.5 -24.999h-300v-205l55 1h196c3.33301 -13.333 5 -28.333 5 -45s-1.66699 -31 -5 -43h-188h-35.5c-10.333 0 -19.166 0.333008 -26.499 1v-164z" />
    <glyph glyph-name="eogonek" unicode="&#x119;" horiz-adv-x="500" 
d="M274 -12l-24.001 -0.999023c-38 0 -70 6.66699 -96 20s-47.167 31.666 -63.5 54.999s-28.166 51.166 -35.499 83.499s-11 67.166 -11 104.499c0 36.667 4.66699 70.834 14 102.501s22.666 58.834 39.999 81.501s38.833 40.5 64.5 53.5s54.5 19.5 86.5 19.5
s60.5 -5.33301 85.5 -16s46.167 -25.5 63.5 -44.5s30.5 -41.667 39.5 -68s13.5 -54.833 13.5 -85.5c0 -13.333 -0.5 -26.5 -1.5 -39.5s-2.83301 -26.167 -5.5 -39.5h-294c2 -46 11.833 -81.333 29.5 -106s47.5 -37 89.5 -37c20 0 41.5 3 64.5 9s46.833 15.667 71.5 29
c16.667 -15.333 27.667 -37.333 33 -66c-20.667 -14.667 -43.667 -26.334 -69 -35.001c-46.667 -34.667 -70 -71.667 -70 -111c0 -13.333 4.5 -24.333 13.5 -33s21.167 -13 36.5 -13c17.333 0 36.333 5.66699 57 17c15.333 -13.333 23 -30 23 -50
c-27.333 -23.333 -59.666 -35 -96.999 -35c-38 0 -66.833 8 -86.5 24s-29.5 41.667 -29.5 77c0 34.667 19.333 69.334 58 104.001zM251.999 430.001c-63.333 0 -97.333 -47 -102 -141h202v13c0 38 -8.16699 68.833 -24.5 92.5s-41.5 35.5 -75.5 35.5z" />
    <glyph glyph-name="Ecaron" unicode="&#x11a;" horiz-adv-x="566" 
d="M195 138l-1 -51c20 2 42 3 66 3h259c0 -18 -1 -31.667 -3 -41c-6 -33.333 -28.667 -50 -68 -50h-297c-18.667 0 -33.5 5.83301 -44.5 17.5s-16.5 27.834 -16.5 48.501v612l7 6h402c2 -10.667 3 -24.834 3 -42.501s-2.66699 -33.5 -8 -47.5h-300l1 -65v-140l62 1h188
c3.33301 -12 5 -26.833 5 -44.5s-1.66699 -32.167 -5 -43.5h-188c-26 0 -46.667 0.333008 -62 1v-164zM185 892l112.001 -74l115 82c9.33301 -3.33301 18.666 -9.33301 27.999 -18s15.333 -17.667 18 -27l-115 -113c-32 -6.66699 -62.667 -7 -92 -1l-112 106
c8 22.667 23.333 37.667 46 45z" />
    <glyph glyph-name="ecaron" unicode="&#x11b;" horiz-adv-x="500" 
d="M444 214l-294 0.000976562c2 -46 11.833 -81.333 29.5 -106s47.5 -37 89.5 -37c20 0 41.5 3 64.5 9s46.833 15.667 71.5 29c16.667 -15.333 27.667 -37.333 33 -66c-53.333 -37.333 -116 -56 -188 -56c-38 0 -70 6.66699 -96 20s-47.167 31.666 -63.5 54.999
s-28.166 51.166 -35.499 83.499s-11 67.166 -11 104.499c0 36.667 4.66699 70.834 14 102.501s22.666 58.834 39.999 81.501s38.833 40.5 64.5 53.5s54.5 19.5 86.5 19.5s60.5 -5.33301 85.5 -16s46.167 -25.5 63.5 -44.5s30.5 -41.667 39.5 -68s13.5 -54.833 13.5 -85.5
c0 -13.333 -0.5 -26.5 -1.5 -39.5s-2.83301 -26.167 -5.5 -39.5zM252 430.001c-63.333 0 -97.333 -47 -102 -141h202v13c0 38 -8.16699 68.833 -24.5 92.5s-41.5 35.5 -75.5 35.5zM161 727.001l93 -91.001l101 97c20 -6.66699 36 -21 48 -43l-107 -134
c-23.333 -9.33301 -52.333 -9.66602 -87 -0.999023l-98 126c11.333 22.667 28 38 50 46z" />
    <glyph glyph-name="Hbar" unicode="&#x126;" horiz-adv-x="684" 
d="M201 307l1 -74v-233c-15.333 -2.66699 -33.5 -4 -54.5 -4s-38.5 1.33301 -52.5 4v494h-71c-3.33301 14.667 -5 28.334 -5 41.001s1.66699 26.667 5 42h71v106c14 2.66699 31.5 4 52.5 4s39.167 -1.33301 54.5 -4v-106h280v106c14 2.66699 31.5 4 52.5 4
s39.167 -1.33301 54.5 -4v-106h71c2.66699 -12.667 4 -26.834 4 -42.501s-1.33301 -29.167 -4 -40.5h-71v-494c-15.333 -2.66699 -33.5 -4 -54.5 -4s-38.5 1.33301 -52.5 4v233l1 74l-57 -1h-168zM201 396l57 1h168l57 -1l-1 74v24h-280v-24z" />
    <glyph glyph-name="hbar" unicode="&#x127;" horiz-adv-x="547" 
d="M182 669l-0.000976562 -31.999l160 2c1.33301 -6 2.33301 -12 3 -18s1 -12 1 -18s-0.333008 -12 -1 -18s-1.66699 -11.667 -3 -17l-160 2v-134c48.667 44 101.334 66 158.001 66c44.667 0 78 -14.833 100 -44.5s33 -69.5 33 -119.5v-232c0 -40 5.33301 -70.333 16 -91
c-17.333 -14.667 -37.666 -22 -60.999 -22c-22 0 -37.167 5.5 -45.5 16.5s-12.5 27.5 -12.5 49.5v254c0 34.667 -4.5 59.334 -13.5 74.001s-24.5 22 -46.5 22s-44.5 -5.66699 -67.5 -17s-43.167 -26.333 -60.5 -45v-347c-6.66699 -1.33301 -14.334 -2.33301 -23.001 -3
s-17.667 -1 -27 -1s-18.5 0.333008 -27.5 1s-16.833 1.66699 -23.5 3v569l-70 -1c-2 7.33301 -3.33301 13.666 -4 18.999s-1 10.666 -1 15.999s0.333008 10.833 1 16.5s2 12.167 4 19.5l70 -1v91l6 6h40c20.667 0 35 -5 43 -15s12 -27 12 -51z" />
    <glyph glyph-name="Itilde" unicode="&#x128;" horiz-adv-x="294" 
d="M94 0v683c13.333 2.66699 30.833 4 52.5 4s39.5 -1.33301 53.5 -4v-683c-14 -2.66699 -31.833 -4 -53.5 -4s-39.167 1.33301 -52.5 4zM159 756l-56.001 27.001c-6 2.66699 -11.667 4.83398 -17 6.50098s-10.666 2.5 -15.999 2.5
c-7.33301 0.666992 -13.833 -1.16602 -19.5 -5.49902s-12.167 -10.833 -19.5 -19.5l-12 -14c-10 0 -20.167 3 -30.5 9s-17.5 13.333 -21.5 22l9 20c10.667 23.333 25.334 41.333 44.001 54s38.667 19 60 19c19.333 0 38.333 -5.33301 57 -16l56 -26
c4.66699 -2.66699 9.5 -4.83398 14.5 -6.50098s10.167 -2.5 15.5 -2.5c13.333 -0.666992 27.333 7.66602 42 24.999l12 14c24.667 -0.666992 42 -11.334 52 -32.001l-9 -19c-22.667 -48.667 -56.667 -73 -102 -73c-16.667 0 -36.334 5 -59.001 15z" />
    <glyph glyph-name="itilde" unicode="&#x129;" horiz-adv-x="271" 
d="M195 408l0.00292969 -408c-12.667 -2.66699 -29.834 -4 -51.501 -4s-38.834 1.33301 -51.501 4v366c0 18.667 -3.33301 32 -10 40s-18 12 -34 12h-11c-3.33301 14.667 -5 27 -5 37s1.66699 22.667 5 38c22 2.66699 43 4 63 4h14c25.333 0 45.166 -8 59.499 -24
s21.5 -37.667 21.5 -65zM138.003 571l-55.001 26.999c-4.66699 2.66699 -9.5 4.83398 -14.5 6.50098s-10.167 2.5 -15.5 2.5c-15.333 0.666992 -29 -7.66602 -41 -24.999l-11 -14c-10 0 -20 3 -30 9s-17 13.667 -21 23l9 20c22 48.667 55.333 73 100 73c18 0 37 -5 57 -15
l55 -28c4.66699 -2.66699 9.33398 -4.83398 14.001 -6.50098s9.66699 -2.5 15 -2.5c6.66699 0 13.5 1.83301 20.5 5.5s14.167 10.5 21.5 20.5l11 14c10 0 20 -3.16699 30 -9.5s17 -13.833 21 -22.5l-9 -20c-22 -48.667 -55.333 -73 -100 -73c-17.333 0 -36.333 5 -57 15z
" />
    <glyph glyph-name="dotlessi" unicode="&#x131;" horiz-adv-x="271" 
d="M195 408l0.00292969 -408c-12.667 -2.66699 -29.834 -4 -51.501 -4s-38.834 1.33301 -51.501 4v366c0 18.667 -3.33301 32 -10 40s-18 12 -34 12h-11c-3.33301 14.667 -5 27 -5 37s1.66699 22.667 5 38c22 2.66699 43 4 63 4h14c25.333 0 45.166 -8 59.499 -24
s21.5 -37.667 21.5 -65z" />
    <glyph glyph-name="IJ" unicode="&#x132;" horiz-adv-x="740" 
d="M94 0v683c13.333 2.66699 30.833 4 52.5 4s39.5 -1.33301 53.5 -4v-683c-14 -2.66699 -31.833 -4 -53.5 -4s-39.167 1.33301 -52.5 4zM342 112c36.667 -22 73.668 -33.001 111.001 -33.001s63.833 12 79.5 36s23.5 63.667 23.5 119v449c14 2.66699 31.667 4 53 4
s39 -1.33301 53 -4v-434c0 -40.667 -2.66699 -75.167 -8 -103.5s-15 -54.833 -29 -79.5c-28 -50.667 -83.667 -76 -167 -76c-58.667 0 -110.667 14 -156 42c5.33301 30.667 18.666 57.334 39.999 80.001z" />
    <glyph glyph-name="ij" unicode="&#x133;" horiz-adv-x="546" 
d="M195 408l0.00292969 -408c-12.667 -2.66699 -29.834 -4 -51.501 -4s-38.834 1.33301 -51.501 4v366c0 18.667 -3.33301 32 -10 40s-18 12 -34 12h-11c-3.33301 14.667 -5 27 -5 37s1.66699 22.667 5 38c22 2.66699 43 4 63 4h14c25.333 0 45.166 -8 59.499 -24
s21.5 -37.667 21.5 -65zM70.0029 587c-6 12 -9 26.668 -9 44.001c0 27.333 5 43.5 15 48.5s26.667 7.83301 50 8.5c26.667 -0.666992 43.667 -4 51 -10s11.333 -21.667 12 -47c-0.666992 -24 -4.66699 -39.333 -12 -46s-24.333 -10.334 -51 -11.001
c-26 0 -44.667 4.33301 -56 13zM469.003 408.001l0.00195312 -389.998c0 -46.667 -3 -84.167 -9 -112.5s-15 -50.833 -27 -67.5s-27 -28.834 -45 -36.501s-39 -14.5 -63 -20.5c-17.333 16 -27.333 37 -30 63c14 6.66699 25.667 13.667 35 21s16.666 15.833 21.999 25.5
s9.16602 20.667 11.499 33s3.5 27.166 3.5 44.499v398c0 18.667 -3.16699 32 -9.5 40s-17.5 12 -33.5 12h-20c-2 7.33301 -3.33301 13.833 -4 19.5s-1 11.5 -1 17.5c0 5.33301 0.333008 11 1 17s2 13 4 21c12 1.33301 24 2.33301 36 3s24.333 1 37 1h13
c24.667 0 44 -7.83301 58 -23.5s21 -37.5 21 -65.5zM344.005 587.003c-6 12 -9 26.668 -9 44.001c0 24 3.5 39.167 10.5 45.5s25.167 10.166 54.5 11.499c22.667 -2 38.334 -4.5 47.001 -7.5s14 -19.5 16 -49.5c-2 -28 -6.33301 -44 -13 -48s-23.334 -7 -50.001 -9
c-26 0 -44.667 4.33301 -56 13z" />
    <glyph glyph-name="Jcircumflex" unicode="&#x134;" horiz-adv-x="448" 
d="M50 112c36.667 -22 73.668 -33.001 111.001 -33.001s63.833 12 79.5 36s23.5 63.667 23.5 119v449c14 2.66699 31.667 4 53 4s39 -1.33301 53 -4v-434c0 -40.667 -2.66699 -75.167 -8 -103.5s-15 -54.833 -29 -79.5c-28 -50.667 -83.667 -76 -167 -76
c-58.667 0 -110.667 14 -156 42c5.33301 30.667 18.666 57.334 39.999 80.001zM430.001 736.999l-113 75l-115 -83c-8.66699 3.33301 -17.667 9.5 -27 18.5s-15.333 18.167 -18 27.5l114 113c31.333 6 62 6 92 0l112 -106c-3.33301 -10.667 -9.5 -20.167 -18.5 -28.5
s-17.833 -13.833 -26.5 -16.5z" />
    <glyph glyph-name="jcircumflex" unicode="&#x135;" horiz-adv-x="278" 
d="M201 408l-0.000976562 -390c0 -91.333 -11.667 -150.333 -35 -177c-23.333 -28 -59.666 -48 -108.999 -60c-16.667 16 -26.667 37 -30 63c28 14 47 29.5 57 46.5s15 42.833 15 77.5v398c0 18.667 -3.16699 32 -9.5 40s-17.5 12 -33.5 12h-20c-3.33301 14.667 -5 27 -5 37
s1.66699 22.667 5 38c24 2.66699 48.333 4 73 4h13c24.667 0 44 -8 58 -24s21 -37.667 21 -65zM226.999 546l-93 91l-100 -96c-20.667 8 -36.667 22.333 -48 43l106 133c25.333 8.66699 54.333 9 87 1l98 -126c-10 -22 -26.667 -37.333 -50 -46z" />
    <glyph glyph-name="Kcommaaccent" unicode="&#x136;" horiz-adv-x="596" 
d="M580 28c-14.667 -22.667 -38.666 -34 -71.999 -34c-19.333 0 -33.833 4.83301 -43.5 14.5s-18.5 26.167 -26.5 49.5l-54 147c-14 37.333 -30 63.666 -48 78.999s-40.5 23 -67.5 23s-50.833 -0.666992 -71.5 -2v-305c-14 -2.66699 -31.833 -4 -53.5 -4
s-39.167 1.33301 -52.5 4v683c13.333 2.66699 30.833 4 52.5 4s39.5 -1.33301 53.5 -4v-287l56 2c9.33301 0 16.5 2 21.5 6s10.5 11.333 16.5 22l128 217c9.33301 16 18.166 27.167 26.499 33.5s21.5 9.5 39.5 9.5s37.667 -1 59 -3l7 -9l-151 -256
c-12.667 -21.333 -26 -38 -40 -50c31.333 -6 55.833 -18.667 73.5 -38s33.5 -47.666 47.5 -84.999l54 -145c13.333 -34.667 28.333 -58.667 45 -72zM368.001 -58c6.66699 -16 10.002 -33.335 10.002 -52.002c0 -33.333 -11 -63.5 -33 -90.5s-52.333 -47.833 -91 -62.5
c-18 5.33301 -29.333 20 -34 44c40 26 60 58 60 96c0 18.667 -4.33301 36 -13 52c13.333 8.66699 29.666 14.334 48.999 17.001s36.666 1.33398 51.999 -3.99902z" />
    <glyph glyph-name="kcommaaccent" unicode="&#x137;" horiz-adv-x="502" 
d="M403 186l34.001 -83c15.333 -40.667 31.333 -66.667 48 -78c-18.667 -21.333 -41.667 -32 -69 -32c-17.333 0 -30.666 4.5 -39.999 13.5s-18 23.833 -26 44.5l-40 98c-10.667 26 -21.834 43.5 -33.501 52.5s-25.5 13.5 -41.5 13.5s-34.667 -0.666992 -56 -2v-213
c-12.667 -2.66699 -29.334 -4 -50.001 -4s-37.667 1.33301 -51 4v729l6 6h40c20.667 0 35 -5 43 -15s12 -27 12 -51v-370l34 2c10.667 0 18.667 4.66699 24 14l88 138c16.667 29.333 38 44 64 44s45.333 -0.333008 58 -1l6 -8l-109 -173c-10 -16 -21 -29 -33 -39
c41.333 -10.667 72 -40.667 92 -90zM323.001 -58c6.66699 -16 10.002 -33.335 10.002 -52.002c0 -33.333 -11 -63.5 -33 -90.5s-52.333 -47.833 -91 -62.5c-18 5.33301 -29.333 20 -34 44c40 26 60 58 60 96c0 18.667 -4.33301 36 -13 52
c13.333 8.66699 29.666 14.334 48.999 17.001s36.666 1.33398 51.999 -3.99902z" />
    <glyph glyph-name="kgreenlandic" unicode="&#x138;" horiz-adv-x="502" 
d="M403 186l34.001 -83c15.333 -40.667 31.333 -66.667 48 -78c-18.667 -21.333 -41.667 -32 -69 -32c-17.333 0 -30.666 4.5 -39.999 13.5s-18 23.833 -26 44.5l-40 98c-10.667 26 -21.834 43.5 -33.501 52.5s-25.5 13.5 -41.5 13.5s-34.667 -0.666992 -56 -2v-213
c-12.667 -2.66699 -29.334 -4 -50.001 -4s-37.667 1.33301 -51 4v492l6 6h40c20.667 0 35 -5 43 -15s12 -27 12 -51v-133l34 2c10.667 0 18.667 4.66699 24 14l88 138c16.667 29.333 38 44 64 44s45.333 -0.333008 58 -1l6 -8l-109 -173c-10 -16 -21 -29 -33 -39
c41.333 -10.667 72 -40.667 92 -90z" />
    <glyph glyph-name="Ldot" unicode="&#x13f;" horiz-adv-x="512" 
d="M286 92l199 -0.000976562c0 -14.667 -1 -28.667 -3 -42c-6 -34 -29 -51 -69 -51h-261c-18.667 0 -33.667 5.83301 -45 17.5s-17 27.834 -17 48.501v616l7 6h40c22 0 37.5 -5.33301 46.5 -16s13.5 -28 13.5 -52v-531c27.333 2.66699 57 4 89 4zM344 399.999
c12.667 8.66699 30.333 13 53 13c10 0 18.667 -0.666992 26 -2s13.833 -3.5 19.5 -6.5s9.33398 -8.66699 11.001 -17s2.5 -19.5 2.5 -33.5s-0.833008 -25.333 -2.5 -34s-4.83398 -14.167 -9.50098 -16.5s-11 -4.5 -19 -6.5s-17.333 -3 -28 -3c-12 0 -22.5 1.33301 -31.5 4
s-15.167 5 -18.5 7s-5.83301 7.33301 -7.5 16s-2.5 19.667 -2.5 33c0 22 2.33301 37.333 7 46z" />
    <glyph glyph-name="ldot" unicode="&#x140;" horiz-adv-x="350" 
d="M217 77h37c6 -16.667 9 -31.334 9 -44.001s-1 -22.667 -3 -30c-26.667 -4.66699 -55 -7 -85 -7c-66 0 -99 34.333 -99 103v630l7 6h39c20.667 0 35.167 -5.16699 43.5 -15.5s12.5 -27.166 12.5 -50.499v-547c0 -30 13 -45 39 -45zM248 400
c12.667 8.66699 30.333 13 53 13c10 0 18.667 -0.666992 26 -2s13.833 -3.5 19.5 -6.5s9.33398 -8.66699 11.001 -17s2.5 -19.5 2.5 -33.5s-0.833008 -25.333 -2.5 -34s-4.83398 -14.167 -9.50098 -16.5s-11 -4.5 -19 -6.5s-17.333 -3 -28 -3c-12 0 -22.5 1.33301 -31.5 4
s-15.167 5 -18.5 7s-5.83301 7.33301 -7.5 16s-2.5 19.667 -2.5 33c0 22 2.33301 37.333 7 46z" />
    <glyph glyph-name="Lslash" unicode="&#x141;" horiz-adv-x="518" 
d="M203 619v-215.999l176 60l8 -4c7.33301 -22 8 -49 2 -81l-186 -61v-229c27.333 2.66699 57 4 89 4h199c0 -19.333 -1 -33.333 -3 -42c-5.33301 -34 -28.333 -51 -69 -51h-260c-18.667 0 -33.667 5.66699 -45 17s-17 27.666 -17 48.999v220l-69 -24l-7 4
c-8 25.333 -8.66699 52.333 -2 81l78 27v308l6 6h41c21.333 0 36.5 -5.33301 45.5 -16s13.5 -28 13.5 -52z" />
    <glyph glyph-name="lslash" unicode="&#x142;" horiz-adv-x="331" 
d="M246 77h37c5.33301 -14.667 8 -29.5 8 -44.5s-0.666992 -24.833 -2 -29.5c-26.667 -4.66699 -55 -7 -85 -7c-65.333 0 -98 34.333 -98 103v206l-70 -36l-8 4c-6.66699 25.333 -7 51.333 -1 78l79 41v337l6 6h38c21.333 0 36 -5 44 -15s12 -27 12 -51v-225l79 42l8 -4
c6.66699 -25.333 7 -51.333 1 -78l-88 -46v-236c0 -30 13.333 -45 40 -45z" />
    <glyph glyph-name="Nacute" unicode="&#x143;" horiz-adv-x="680" 
d="M583 687l5.99805 -5v-681c-18.667 -3.33301 -40 -5 -64 -5s-45.333 1.33301 -64 4l-213 419c-21.333 44.667 -42.333 91 -63 139l-4 -1c6 -103.333 9 -185 9 -245v-312c-16 -2.66699 -32.667 -4 -50 -4s-33.666 1.33301 -48.999 4v682c18.667 3.33301 39.834 5 63.501 5
s44.834 -1.33301 63.501 -4l211 -419l37 -81.5c15.333 -34.333 25 -55.5 29 -63.5l4 1c-5.33301 85.333 -8 169.333 -8 252v249c0 24 4.16699 41 12.5 51s23.166 15 44.499 15h35zM241.998 782l203 119.998c10 -7.33301 19.667 -19.166 29 -35.499s15 -32.5 17 -48.5
l-218 -90c-7.33301 4.66699 -14 12.334 -20 23.001s-9.66699 21 -11 31z" />
    <glyph glyph-name="nacute" unicode="&#x144;" horiz-adv-x="546" 
d="M472 339l0.000976562 -233.002c0 -39.333 5.66699 -69.666 17 -90.999c-17.333 -14.667 -37.666 -22 -60.999 -22c-22.667 0 -38.167 5.5 -46.5 16.5s-12.5 27.5 -12.5 49.5v254c0 34.667 -4.5 59.334 -13.5 74.001s-24.5 22 -46.5 22s-44.5 -5.5 -67.5 -16.5
s-43.167 -26.167 -60.5 -45.5v-347c-11.333 -2.66699 -28.333 -4 -51 -4c-10.667 0 -20.334 0.333008 -29.001 1s-16.334 1.66699 -23.001 3v492l6 6h39c36 0 55 -20.667 57 -62c48.667 44.667 101.667 67 159 67c44.667 0 78 -14.833 100 -44.5s33 -69.5 33 -119.5z
M203.001 579.998l144 159.001c15.333 -5.33301 30 -14.333 44 -27s23.667 -26.334 29 -41.001l-171 -133c-9.33301 2.66699 -18.333 8 -27 16s-15 16.667 -19 26z" />
    <glyph glyph-name="Ncaron" unicode="&#x147;" horiz-adv-x="680" 
d="M583 687l5.99805 -5v-681c-18.667 -3.33301 -40 -5 -64 -5s-45.333 1.33301 -64 4l-213 419c-21.333 44.667 -42.333 91 -63 139l-4 -1c6 -103.333 9 -185 9 -245v-312c-16 -2.66699 -32.667 -4 -50 -4s-33.666 1.33301 -48.999 4v682c18.667 3.33301 39.834 5 63.501 5
s44.834 -1.33301 63.501 -4l211 -419l37 -81.5c15.333 -34.333 25 -55.5 29 -63.5l4 1c-5.33301 85.333 -8 169.333 -8 252v249c0 24 4.16699 41 12.5 51s23.166 15 44.499 15h35zM228.998 892l112.001 -74l115 82c9.33301 -3.33301 18.666 -9.33301 27.999 -18
s15.333 -17.667 18 -27l-115 -113c-32 -6.66699 -62.667 -7 -92 -1l-112 106c8 22.667 23.333 37.667 46 45z" />
    <glyph glyph-name="ncaron" unicode="&#x148;" horiz-adv-x="546" 
d="M472 339l0.000976562 -233.002c0 -39.333 5.66699 -69.666 17 -90.999c-17.333 -14.667 -37.666 -22 -60.999 -22c-22.667 0 -38.167 5.5 -46.5 16.5s-12.5 27.5 -12.5 49.5v254c0 34.667 -4.5 59.334 -13.5 74.001s-24.5 22 -46.5 22s-44.5 -5.5 -67.5 -16.5
s-43.167 -26.167 -60.5 -45.5v-347c-11.333 -2.66699 -28.333 -4 -51 -4c-10.667 0 -20.334 0.333008 -29.001 1s-16.334 1.66699 -23.001 3v492l6 6h39c36 0 55 -20.667 57 -62c48.667 44.667 101.667 67 159 67c44.667 0 78 -14.833 100 -44.5s33 -69.5 33 -119.5z
M184.001 726.998l93 -91.001l101 97c20 -6.66699 36 -21 48 -43l-107 -134c-23.333 -9.33301 -52.333 -9.66602 -87 -0.999023l-98 126c11.333 22.667 28 38 50 46z" />
    <glyph glyph-name="OE" unicode="&#x152;" horiz-adv-x="896" 
d="M528 138l-1 -50.002c13.333 0.666992 25.5 1.16699 36.5 1.5s21.167 0.5 30.5 0.5h259c0 -32 -5 -55.167 -15 -69.5s-28.667 -21.5 -56 -21.5h-324c-61.333 -8 -104 -12 -128 -12c-47.333 0 -88.666 9.33301 -123.999 28s-64.666 44 -87.999 76s-40.833 69.5 -52.5 112.5
s-17.5 88.833 -17.5 137.5s5.83301 94.667 17.5 138s29.167 81 52.5 113s52.666 57.333 87.999 76s76.666 28 123.999 28c10 0 25.5 -1 46.5 -3s47.5 -5.33301 79.5 -10h377c2 -10 3 -22.333 3 -37c0 -9.33301 -0.5 -18.666 -1.5 -27.999s-3.16699 -17.666 -6.5 -24.999
h-301l1 -206l63 2h188c3.33301 -13.333 5 -28.333 5 -45s-1.66699 -31 -5 -43h-188h-36c-10.667 0 -19.667 0.333008 -27 1v-164zM425 84.998v513c-18 4 -34.833 7.16699 -50.5 9.5s-30.5 3.5 -44.5 3.5c-32 0 -59 -7.66699 -81 -23s-39.5 -35.5 -52.5 -60.5
s-22.333 -53.667 -28 -86s-8.5 -65.5 -8.5 -99.5c0 -35.333 2.66699 -69.333 8 -102s14.833 -61.5 28.5 -86.5s32.167 -45 55.5 -60s53 -22.5 89 -22.5c26 0 54 4.66699 84 14z" />
    <glyph glyph-name="oe" unicode="&#x153;" horiz-adv-x="829" 
d="M774 214l-291.999 0.000976562c2 -44.667 11.333 -79.667 28 -105s46.334 -38 89.001 -38c41.333 0 86.666 12.667 135.999 38c16.667 -14.667 27.667 -36.334 33 -65.001c-52 -38 -114.667 -57 -188 -57s-126 27 -158 81c-34 -54 -88 -81 -162 -81
c-34 0 -64.5 6.16699 -91.5 18.5s-49.667 29.833 -68 52.5s-32.333 49.834 -42 81.501s-14.5 67.167 -14.5 106.5s4.83301 75.166 14.5 107.499s23.667 59.833 42 82.5s40.833 40.167 67.5 52.5s57.334 18.5 92.001 18.5c74 0 128.667 -28.667 164 -86
c35.333 57.333 86 86 152 86c33.333 0 62.666 -5.33301 87.999 -16s46.666 -25.5 63.999 -44.5s30.5 -41.667 39.5 -68s13.5 -54.833 13.5 -85.5c0 -13.333 -0.5 -26.5 -1.5 -39.5s-2.83301 -26.167 -5.5 -39.5zM260.001 428.001c-72.667 0 -109 -60.333 -109 -181
s36.333 -181 109 -181c73.333 0 110 60.333 110 181s-36.667 181 -110 181zM583.001 430.001c-62.667 0 -96.333 -47.001 -101 -141.001h199v12c0 38.667 -7.83301 69.834 -23.5 93.501s-40.5 35.5 -74.5 35.5z" />
    <glyph glyph-name="Racute" unicode="&#x154;" horiz-adv-x="600" 
d="M97 684l215.001 2.99902c70.667 0 126.167 -17.833 166.5 -53.5s60.5 -86.167 60.5 -151.5c0 -44.667 -11.833 -83.167 -35.5 -115.5s-54.5 -54.5 -92.5 -66.5c31.333 -11.333 55 -39.666 71 -84.999l44 -117c12.667 -34.667 27.667 -58.667 45 -72
c-14.667 -22 -38.667 -33 -72 -33c-18.667 0 -32.834 5 -42.501 15s-18.834 26.667 -27.501 50l-50 135c-10 26.667 -22.167 47 -36.5 61s-35.833 21 -64.5 21h-82v-275c-14 -2.66699 -31.667 -4 -53 -4s-38.666 1.33301 -51.999 4v677zM196.001 603.999v-244.001
c52 1.33301 89 2 111 2c44.667 0 76.167 11.333 94.5 34s27.5 51.334 27.5 86.001c0 80.667 -40.667 121 -122 121c-51.333 0 -88.333 0.333008 -111 1zM197.001 781.998l203 119.998c10 -7.33301 19.667 -19.166 29 -35.499s15 -32.5 17 -48.5l-218 -90
c-7.33301 4.66699 -14 12.334 -20 23.001s-9.66699 21 -11 31z" />
    <glyph glyph-name="racute" unicode="&#x155;" horiz-adv-x="368" 
d="M50 446c6.66699 24.667 19.334 43.002 38.001 55.002c46 -10 76.333 -39.667 91 -89c26.667 59.333 70.334 89 131.001 89c16 0 33.667 -2 53 -6c0 -38.667 -8.33301 -71.334 -25 -98.001c-6 2 -19.667 3.66699 -41 5c-45.333 0 -81 -25.333 -107 -76v-326
c-12.667 -2.66699 -29.834 -4 -51.501 -4s-38.834 1.33301 -51.501 4v343c0 45.333 -12.333 79.666 -37 102.999zM126 580.002l144 159.001c15.333 -5.33301 30 -14.333 44 -27s23.667 -26.334 29 -41.001l-171 -133c-9.33301 2.66699 -18.333 8 -27 16s-15 16.667 -19 26z
" />
    <glyph glyph-name="Rcommaaccent" unicode="&#x156;" horiz-adv-x="600" 
d="M97 684l215.001 2.99902c70.667 0 126.167 -17.833 166.5 -53.5s60.5 -86.167 60.5 -151.5c0 -44.667 -11.833 -83.167 -35.5 -115.5s-54.5 -54.5 -92.5 -66.5c31.333 -11.333 55 -39.666 71 -84.999l44 -117c12.667 -34.667 27.667 -58.667 45 -72
c-14.667 -22 -38.667 -33 -72 -33c-18.667 0 -32.834 5 -42.501 15s-18.834 26.667 -27.501 50l-50 135c-10 26.667 -22.167 47 -36.5 61s-35.833 21 -64.5 21h-82v-275c-14 -2.66699 -31.667 -4 -53 -4s-38.666 1.33301 -51.999 4v677zM196.001 603.999v-244.001
c52 1.33301 89 2 111 2c44.667 0 76.167 11.333 94.5 34s27.5 51.334 27.5 86.001c0 80.667 -40.667 121 -122 121c-51.333 0 -88.333 0.333008 -111 1zM367.001 -58.002c6.66699 -16 10.002 -33.335 10.002 -52.002c0 -33.333 -11 -63.5 -33 -90.5
s-52.333 -47.833 -91 -62.5c-18 5.33301 -29.333 20 -34 44c40 26 60 58 60 96c0 18.667 -4.33301 36 -13 52c13.333 8.66699 29.666 14.334 48.999 17.001s36.666 1.33398 51.999 -3.99902z" />
    <glyph glyph-name="rcommaaccent" unicode="&#x157;" horiz-adv-x="368" 
d="M50 446c6.66699 24.667 19.334 43.002 38.001 55.002c46 -10 76.333 -39.667 91 -89c26.667 59.333 70.334 89 131.001 89c16 0 33.667 -2 53 -6c0 -38.667 -8.33301 -71.334 -25 -98.001c-6 2 -19.667 3.66699 -41 5c-45.333 0 -81 -25.333 -107 -76v-326
c-12.667 -2.66699 -29.834 -4 -51.501 -4s-38.834 1.33301 -51.501 4v343c0 45.333 -12.333 79.666 -37 102.999zM196 -57.998c6.66699 -16 10.002 -33.335 10.002 -52.002c0 -33.333 -11 -63.5 -33 -90.5s-52.333 -47.833 -91 -62.5c-18 5.33301 -29.333 20 -34 44
c40 26 60 58 60 96c0 18.667 -4.33301 36 -13 52c13.333 8.66699 29.666 14.334 48.999 17.001s36.666 1.33398 51.999 -3.99902z" />
    <glyph glyph-name="Rcaron" unicode="&#x158;" horiz-adv-x="600" 
d="M97 684l215.001 2.99902c70.667 0 126.167 -17.833 166.5 -53.5s60.5 -86.167 60.5 -151.5c0 -44.667 -11.833 -83.167 -35.5 -115.5s-54.5 -54.5 -92.5 -66.5c31.333 -11.333 55 -39.666 71 -84.999l44 -117c12.667 -34.667 27.667 -58.667 45 -72
c-14.667 -22 -38.667 -33 -72 -33c-18.667 0 -32.834 5 -42.501 15s-18.834 26.667 -27.501 50l-50 135c-10 26.667 -22.167 47 -36.5 61s-35.833 21 -64.5 21h-82v-275c-14 -2.66699 -31.667 -4 -53 -4s-38.666 1.33301 -51.999 4v677zM196.001 603.999v-244.001
c52 1.33301 89 2 111 2c44.667 0 76.167 11.333 94.5 34s27.5 51.334 27.5 86.001c0 80.667 -40.667 121 -122 121c-51.333 0 -88.333 0.333008 -111 1zM185.001 891.998l112.001 -74l115 82c9.33301 -3.33301 18.666 -9.33301 27.999 -18s15.333 -17.667 18 -27l-115 -113
c-32 -6.66699 -62.667 -7 -92 -1l-112 106c8 22.667 23.333 37.667 46 45z" />
    <glyph glyph-name="rcaron" unicode="&#x159;" horiz-adv-x="368" 
d="M50 446c6.66699 24.667 19.334 43.002 38.001 55.002c46 -10 76.333 -39.667 91 -89c26.667 59.333 70.334 89 131.001 89c16 0 33.667 -2 53 -6c0 -38.667 -8.33301 -71.334 -25 -98.001c-6 2 -19.667 3.66699 -41 5c-45.333 0 -81 -25.333 -107 -76v-326
c-12.667 -2.66699 -29.834 -4 -51.501 -4s-38.834 1.33301 -51.501 4v343c0 45.333 -12.333 79.666 -37 102.999zM108 727.002l93 -91.001l101 97c20 -6.66699 36 -21 48 -43l-107 -134c-23.333 -9.33301 -52.333 -9.66602 -87 -0.999023l-98 126c11.333 22.667 28 38 50 46
z" />
    <glyph glyph-name="Sacute" unicode="&#x15a;" horiz-adv-x="556" 
d="M30 62c2.66699 32.667 17.6689 60 45.002 82c69.333 -45.333 136.333 -68 201 -68c39.333 0 70.5 8.66699 93.5 26s34.5 40 34.5 68c0 46 -30.333 82 -91 108l-118 51c-91.333 39.333 -137 97 -137 173c0 27.333 5.66699 52.833 17 76.5s27 44.5 47 62.5
s44.167 31.667 72.5 41s59.5 14 93.5 14c70 0 139.333 -17.333 208 -52c-0.666992 -32 -13.667 -59.667 -39 -83c-64 31.333 -121 47 -171 47c-36 0 -65 -8.83301 -87 -26.5s-33 -38.5 -33 -62.5c0 -24.667 6.83301 -43.834 20.5 -57.501s34.5 -26.167 62.5 -37.5l116 -50
c50 -21.333 87.5 -47.166 112.5 -77.499s37.5 -66.5 37.5 -108.5c0 -60 -20.833 -108.5 -62.5 -145.5s-104.834 -55.5 -189.501 -55.5s-162.334 25 -233.001 75zM187.002 782l203 119.998c10 -7.33301 19.667 -19.166 29 -35.499s15 -32.5 17 -48.5l-218 -90
c-7.33301 4.66699 -14 12.334 -20 23.001s-9.66699 21 -11 31z" />
    <glyph glyph-name="sacute" unicode="&#x15b;" horiz-adv-x="438" 
d="M31 37c0.666992 11.333 4.33203 24.168 10.999 38.501s14.334 25.5 23.001 33.5c53.333 -29.333 96.666 -44 129.999 -44c34 0 59.167 5.66699 75.5 17s24.5 26.333 24.5 45c0 29.333 -21 52 -63 68l-56 21c-84.667 32 -127 79.667 -127 143c0 46 16.5 82.167 49.5 108.5
s76.167 39.5 129.5 39.5c54 0 107.667 -12 161 -36c0 -13.333 -2.83301 -27.333 -8.5 -42s-13.167 -26 -22.5 -34c-47.333 22 -91.666 33 -132.999 33c-22 0 -39.5 -5.33301 -52.5 -16s-19.5 -24 -19.5 -40s4.83301 -28.333 14.5 -37s25.5 -17.334 47.5 -26.001l60 -23
c84.667 -32.667 127 -82.667 127 -150c0 -46 -17.667 -82.333 -53 -109s-83.333 -40 -144 -40s-118.667 16.667 -174 50zM144.998 580.002l144 159.001c15.333 -5.33301 30 -14.333 44 -27s23.667 -26.334 29 -41.001l-171 -133c-9.33301 2.66699 -18.333 8 -27 16
s-15 16.667 -19 26z" />
    <glyph glyph-name="Scaron" unicode="&#x160;" horiz-adv-x="556" 
d="M30 62c2.66699 32.667 17.6689 60 45.002 82c69.333 -45.333 136.333 -68 201 -68c39.333 0 70.5 8.66699 93.5 26s34.5 40 34.5 68c0 46 -30.333 82 -91 108l-118 51c-91.333 39.333 -137 97 -137 173c0 27.333 5.66699 52.833 17 76.5s27 44.5 47 62.5
s44.167 31.667 72.5 41s59.5 14 93.5 14c70 0 139.333 -17.333 208 -52c-0.666992 -32 -13.667 -59.667 -39 -83c-64 31.333 -121 47 -171 47c-36 0 -65 -8.83301 -87 -26.5s-33 -38.5 -33 -62.5c0 -24.667 6.83301 -43.834 20.5 -57.501s34.5 -26.167 62.5 -37.5l116 -50
c50 -21.333 87.5 -47.166 112.5 -77.499s37.5 -66.5 37.5 -108.5c0 -60 -20.833 -108.5 -62.5 -145.5s-104.834 -55.5 -189.501 -55.5s-162.334 25 -233.001 75zM173.002 892l112.001 -74l115 82c9.33301 -3.33301 18.666 -9.33301 27.999 -18s15.333 -17.667 18 -27
l-115 -113c-32 -6.66699 -62.667 -7 -92 -1l-112 106c8 22.667 23.333 37.667 46 45z" />
    <glyph glyph-name="scaron" unicode="&#x161;" horiz-adv-x="438" 
d="M31 37c0.666992 11.333 4.33203 24.168 10.999 38.501s14.334 25.5 23.001 33.5c53.333 -29.333 96.666 -44 129.999 -44c34 0 59.167 5.66699 75.5 17s24.5 26.333 24.5 45c0 29.333 -21 52 -63 68l-56 21c-84.667 32 -127 79.667 -127 143c0 46 16.5 82.167 49.5 108.5
s76.167 39.5 129.5 39.5c54 0 107.667 -12 161 -36c0 -13.333 -2.83301 -27.333 -8.5 -42s-13.167 -26 -22.5 -34c-47.333 22 -91.666 33 -132.999 33c-22 0 -39.5 -5.33301 -52.5 -16s-19.5 -24 -19.5 -40s4.83301 -28.333 14.5 -37s25.5 -17.334 47.5 -26.001l60 -23
c84.667 -32.667 127 -82.667 127 -150c0 -46 -17.667 -82.333 -53 -109s-83.333 -40 -144 -40s-118.667 16.667 -174 50zM126.998 727.002l93 -91.001l101 97c20 -6.66699 36 -21 48 -43l-107 -134c-23.333 -9.33301 -52.333 -9.66602 -87 -0.999023l-98 126
c11.333 22.667 28 38 50 46z" />
    <glyph glyph-name="Tcaron" unicode="&#x164;" horiz-adv-x="492" 
d="M358 593l-58.002 1v-594c-15.333 -2.66699 -33.166 -4 -53.499 -4s-38.166 1.33301 -53.499 4v520l1 74h-1l-57 -1h-119c-2.66699 14 -4 29 -4 45s1.33301 31 4 45h460c4 -16 6 -31.333 6 -46c0 -29.333 -20 -44 -60 -44h-65zM131.998 892l112.001 -74l115 82
c9.33301 -3.33301 18.666 -9.33301 27.999 -18s15.333 -17.667 18 -27l-115 -113c-32 -6.66699 -62.667 -7 -92 -1l-112 106c8 22.667 23.333 37.667 46 45z" />
    <glyph glyph-name="tcaron" unicode="&#x165;" horiz-adv-x="365" 
d="M321 495c3.33301 -11.333 5 -24.333 5 -39s-1.66699 -27.334 -5 -38.001l-123 2v-299c0 -29.333 13.667 -44 41 -44h69c5.33301 -14.667 8 -29.5 8 -44.5s-0.666992 -24.833 -2 -29.5c-38.667 -4.66699 -76 -7 -112 -7c-70 0 -105 34.333 -105 103v320l-74 -1
c-2.66699 11.333 -4 23.833 -4 37.5s1.33301 26.834 4 39.501l74 -2v88c0 24 4 41 12 51s22.333 15 43 15h39l7 -7v-148zM259 566l12.002 214.001c13.333 3.33301 29.666 3.66602 48.999 0.999023s34.666 -8 45.999 -16l-47 -204c-9.33301 -3.33301 -20 -4.5 -32 -3.5
s-21.333 3.83301 -28 8.5z" />
    <glyph glyph-name="Uring" unicode="&#x16e;" horiz-adv-x="669" 
d="M587 683l0.00195312 -443c0 -81.333 -22.667 -143.833 -68 -187.5s-107 -65.5 -185 -65.5c-77.333 0 -138.666 21.667 -183.999 65s-68 106 -68 188v441l6 6h41c21.333 0 36.5 -5.33301 45.5 -16s13.5 -28 13.5 -52v-379c0 -54.667 12.333 -96.167 37 -124.5
s61 -42.5 109 -42.5c97.333 0 146 55.667 146 167v443c7.33301 1.33301 15.666 2.33301 24.999 3s18.666 1 27.999 1c10 0 19.667 -0.333008 29 -1s17.666 -1.66699 24.999 -3zM333.002 667c-36 0 -65.167 10.833 -87.5 32.5s-33.5 48.5 -33.5 80.5c0 16 3 31 9 45
s14.5 26 25.5 36s23.833 18 38.5 24s30.667 9 48 9s33.5 -3 48.5 -9s27.833 -14 38.5 -24s19 -22 25 -36s9 -29 9 -45c0 -32 -11.167 -58.833 -33.5 -80.5s-51.5 -32.5 -87.5 -32.5zM333.002 835c-16.667 0 -29.334 -5.66699 -38.001 -17s-13 -24 -13 -38
c0 -13.333 4.33301 -25.666 13 -36.999s21.334 -17 38.001 -17s29 5.66699 37 17s12 23.666 12 36.999c0 14 -3.83301 26.667 -11.5 38s-20.167 17 -37.5 17z" />
    <glyph glyph-name="uring" unicode="&#x16f;" horiz-adv-x="547" 
d="M74 155l-0.000976562 233.002c0 40 -5.66699 70 -17 90c16.667 14.667 38.334 22 65.001 22c36.667 0 55 -21.667 55 -65v-255c0 -34.667 4.33301 -59.334 13 -74.001s24 -22 46 -22s44.333 5.5 67 16.5s43 25.833 61 44.5v349c18.667 2.66699 35.667 4 51 4
s33 -1.33301 53 -4v-354c0 -46.667 9.33301 -78.334 28 -95.001c-7.33301 -24 -20.333 -41.333 -39 -52c-42 7.33301 -70 31.333 -84 72c-52 -49.333 -107.667 -74 -167 -74c-44 0 -77 15 -99 45s-33 69.667 -33 119zM267.999 539.002c-17.333 0 -33.502 3 -48.502 9
s-27.833 14.167 -38.5 24.5s-19 22.333 -25 36s-9 28.167 -9 43.5c0 16 3 31 9 45s14.333 26 25 36s23.334 18 38.001 24s31 9 49 9s34.333 -3 49 -9s27.334 -14 38.001 -24s19 -22 25 -36s9 -29 9 -45c0 -15.333 -3 -29.833 -9 -43.5s-14.5 -25.667 -25.5 -36
s-23.833 -18.5 -38.5 -24.5s-30.667 -9 -48 -9zM231.997 691.002c-5.33301 -5.33301 -9 -11.333 -11 -18s-3 -13.667 -3 -21c0 -15.333 4.5 -28.166 13.5 -38.499s21.167 -15.5 36.5 -15.5c14.667 0 26.667 5.16699 36 15.5s14 23.166 14 38.499s-4.66699 28.333 -14 39
s-21.333 16 -36 16s-26.667 -5.33301 -36 -16z" />
    <glyph glyph-name="Ydieresis" unicode="&#x178;" horiz-adv-x="503" 
d="M303 454l90.9971 229c12.667 3.33301 28 5 46 5s35 -2.66699 51 -8l5 -7l-190 -454v-219c-15.333 -2.66699 -33.666 -4 -54.999 -4s-38.666 1.33301 -51.999 4v221l-190 450c22.667 12.667 43 19 61 19s31.333 -3.5 40 -10.5s16.334 -18.833 23.001 -35.5l79 -192
c13.333 -33.333 27.333 -75 42 -125h5c7.33301 26.667 22 69 44 127zM312.997 830c12 8 27.666 12.002 46.999 12.002c18.667 0 33.167 -2.66699 43.5 -8s15.5 -20.333 15.5 -45c0 -22 -3.66699 -36.333 -11 -43s-23.333 -10 -48 -10
c-23.333 0 -38.666 3.83301 -45.999 11.5s-11 21.5 -11 41.5c0 7.33301 0.833008 14.666 2.5 21.999s4.16699 13.666 7.5 18.999zM101.996 830.002c6 4 13.167 7 21.5 9s17.166 3 26.499 3c18 0 32.333 -2.83301 43 -8.5s16 -20.5 16 -44.5c0 -22 -4 -36.333 -12 -43
s-23.667 -10 -47 -10c-25.333 0 -41.166 4.5 -47.499 13.5s-9.5 22.167 -9.5 39.5c0 15.333 3 29 9 41z" />
    <glyph glyph-name="Zacute" unicode="&#x179;" horiz-adv-x="562" 
d="M62 113l252.001 379c6.66699 10 33 45.333 79 106l-3 3c-29.333 -5.33301 -81.333 -8 -156 -8h-161c-2.66699 10.667 -4 23.5 -4 38.5s2.66699 32.167 8 51.5h412c10 -34 15 -57.5 15 -70.5s-4.66699 -26.5 -14 -40.5l-251 -376c-15.333 -23.333 -41.333 -59 -78 -107
l3 -3c42 4 82 6 120 6h104c53.333 0 92.666 6.33301 117.999 19c6 -18 9 -35.333 9 -52c0 -39.333 -24.667 -59 -74 -59h-380c-8.66699 33.333 -13 57 -13 71s4.66699 28 14 42zM184.001 782l203 119.998c10 -7.33301 19.667 -19.166 29 -35.499s15 -32.5 17 -48.5l-218 -90
c-7.33301 4.66699 -14 12.334 -20 23.001s-9.66699 21 -11 31z" />
    <glyph glyph-name="zacute" unicode="&#x17a;" horiz-adv-x="446" 
d="M51 97l162.998 222c18.667 25.333 45 57.666 79 96.999l-3 4c-28 -4 -72 -6 -132 -6h-105c-2.66699 8.66699 -4 20.167 -4 34.5s2 29.5 6 45.5h335c10 -30 15 -50.167 15 -60.5s-4.33301 -22.166 -13 -35.499l-163 -221c-13.333 -18.667 -39 -51 -77 -97l3 -4
c28.667 2.66699 59.334 4 92.001 4h48c50.667 0 86.334 4.66699 107.001 14c6.66699 -15.333 10 -30.333 10 -45c0 -32.667 -21.667 -49 -65 -49h-298c-9.33301 28 -14 47.667 -14 59s5.33301 24 16 38zM148.998 580l144 159.001c15.333 -5.33301 30 -14.333 44 -27
s23.667 -26.334 29 -41.001l-171 -133c-9.33301 2.66699 -18.333 8 -27 16s-15 16.667 -19 26z" />
    <glyph glyph-name="Zdotaccent" unicode="&#x17b;" horiz-adv-x="562" 
d="M62 113l252.001 379c6.66699 10 33 45.333 79 106l-3 3c-29.333 -5.33301 -81.333 -8 -156 -8h-161c-2.66699 10.667 -4 23.5 -4 38.5s2.66699 32.167 8 51.5h412c10 -34 15 -57.5 15 -70.5s-4.66699 -26.5 -14 -40.5l-251 -376c-15.333 -23.333 -41.333 -59 -78 -107
l3 -3c42 4 82 6 120 6h104c53.333 0 92.666 6.33301 117.999 19c6 -18 9 -35.333 9 -52c0 -39.333 -24.667 -59 -74 -59h-380c-8.66699 33.333 -13 57 -13 71s4.66699 28 14 42zM229.001 845c14 8 32.6689 12 56.002 12c25.333 0 42.166 -3.16699 50.499 -9.5
s12.5 -22.166 12.5 -47.499c0 -22 -3 -37 -9 -45s-24 -12 -54 -12c-26 0 -43.333 3.16699 -52 9.5s-13 22.166 -13 47.499c0 8 0.666992 16 2 24s3.66602 15 6.99902 21z" />
    <glyph glyph-name="zdotaccent" unicode="&#x17c;" horiz-adv-x="446" 
d="M51 97l162.998 222c18.667 25.333 45 57.666 79 96.999l-3 4c-28 -4 -72 -6 -132 -6h-105c-2.66699 8.66699 -4 20.167 -4 34.5s2 29.5 6 45.5h335c10 -30 15 -50.167 15 -60.5s-4.33301 -22.166 -13 -35.499l-163 -221c-13.333 -18.667 -39 -51 -77 -97l3 -4
c28.667 2.66699 59.334 4 92.001 4h48c50.667 0 86.334 4.66699 107.001 14c6.66699 -15.333 10 -30.333 10 -45c0 -32.667 -21.667 -49 -65 -49h-298c-9.33301 28 -14 47.667 -14 59s5.33301 24 16 38zM168.998 587c-6 12 -9 26.668 -9 44.001c0 27.333 5 43.5 15 48.5
s26.667 7.83301 50 8.5c26.667 -0.666992 43.667 -4 51 -10s11.333 -21.667 12 -47c-0.666992 -24 -4.66699 -39.333 -12 -46s-24.333 -10.334 -51 -11.001c-26 0 -44.667 4.33301 -56 13z" />
    <glyph glyph-name="uni0237" unicode="&#x237;" horiz-adv-x="278" 
d="M201 408l-0.000976562 -390c0 -91.333 -11.667 -150.333 -35 -177c-23.333 -28 -59.666 -48 -108.999 -60c-16.667 16 -26.667 37 -30 63c28 14 47 29.5 57 46.5s15 42.833 15 77.5v398c0 18.667 -3.16699 32 -9.5 40s-17.5 12 -33.5 12h-20c-3.33301 14.667 -5 27 -5 37
s1.66699 22.667 5 38c24 2.66699 48.333 4 73 4h13c24.667 0 44 -8 58 -24s21 -37.667 21 -65z" />
    <glyph glyph-name="circumflex" unicode="&#x2c6;" horiz-adv-x="398" 
d="M294 546l-93 91l-100 -96c-20.667 8 -36.667 22.333 -48 43l106 133c25.333 8.66699 54.333 9 87 1l98 -126c-10 -22 -26.667 -37.333 -50 -46z" />
    <glyph glyph-name="caron" unicode="&#x2c7;" horiz-adv-x="398" 
d="M105 727l93 -91.001l101 97c20 -6.66699 36 -21 48 -43l-107 -134c-23.333 -9.33301 -52.333 -9.66602 -87 -0.999023l-98 126c11.333 22.667 28 38 50 46z" />
    <glyph glyph-name="dotaccent" unicode="&#x2d9;" horiz-adv-x="398" 
d="M144 587c-6 12 -9 26.668 -9 44.001c0 27.333 5 43.5 15 48.5s26.667 7.83301 50 8.5c26.667 -0.666992 43.667 -4 51 -10s11.333 -21.667 12 -47c-0.666992 -24 -4.66699 -39.333 -12 -46s-24.333 -10.334 -51 -11.001c-26 0 -44.667 4.33301 -56 13z" />
    <glyph glyph-name="ring" unicode="&#x2da;" horiz-adv-x="398" 
d="M199 539c-17.333 0 -33.502 3 -48.502 9s-27.833 14.167 -38.5 24.5s-19 22.333 -25 36s-9 28.167 -9 43.5c0 16 3 31 9 45s14.333 26 25 36s23.334 18 38.001 24s31 9 49 9s34.333 -3 49 -9s27.334 -14 38.001 -24s19 -22 25 -36s9 -29 9 -45
c0 -15.333 -3 -29.833 -9 -43.5s-14.5 -25.667 -25.5 -36s-23.833 -18.5 -38.5 -24.5s-30.667 -9 -48 -9zM162.998 691c-5.33301 -5.33301 -9 -11.333 -11 -18s-3 -13.667 -3 -21c0 -15.333 4.5 -28.166 13.5 -38.499s21.167 -15.5 36.5 -15.5
c14.667 0 26.667 5.16699 36 15.5s14 23.166 14 38.499s-4.66699 28.333 -14 39s-21.333 16 -36 16s-26.667 -5.33301 -36 -16z" />
    <glyph glyph-name="tilde" unicode="&#x2dc;" horiz-adv-x="398" 
d="M210 571l-55.001 26.999c-4.66699 2.66699 -9.5 4.83398 -14.5 6.50098s-10.167 2.5 -15.5 2.5c-15.333 0.666992 -29 -7.66602 -41 -24.999l-11 -14c-10 0 -20 3 -30 9s-17 13.667 -21 23l9 20c22 48.667 55.333 73 100 73c18 0 37 -5 57 -15l55 -28
c4.66699 -2.66699 9.33398 -4.83398 14.001 -6.50098s9.66699 -2.5 15 -2.5c6.66699 0 13.5 1.83301 20.5 5.5s14.167 10.5 21.5 20.5l11 14c10 0 20 -3.16699 30 -9.5s17 -13.833 21 -22.5l-9 -20c-22 -48.667 -55.333 -73 -100 -73c-17.333 0 -36.333 5 -57 15z" />
    <glyph glyph-name="mu" unicode="&#x3bc;" horiz-adv-x="554" 
d="M474 494v-354.001c0 -46.667 9.33301 -78.334 28 -95.001c-7.33301 -24 -20.333 -41.333 -39 -52c-38.667 6.66699 -65.334 28.334 -80.001 65.001c-32.667 -45.333 -75 -68 -127 -68c-32 0 -59.333 9.33301 -82 28v-167c0 -23.333 -3.33301 -40.666 -10 -51.999
s-21.167 -17 -43.5 -17s-42.166 6.66699 -59.499 20c11.333 20 17 50.333 17 91v601c18.667 2.66699 35.334 4 50.001 4s32 -1.33301 52 -4v-314c0 -31.333 8 -55.833 24 -73.5s37.333 -26.5 64 -26.5c39.333 0 73.666 20 102.999 60v354c18.667 2.66699 35.5 4 50.5 4
s32.5 -1.33301 52.5 -4z" />
    <glyph glyph-name="germandbls.cap" unicode="&#x1e9e;" horiz-adv-x="627" 
d="M105 0l0.00195312 391l-86 -1c-1.33301 5.33301 -2.33301 11.5 -3 18.5s-1 14.5 -1 22.5c0 7.33301 0.333008 14.666 1 21.999s1.66699 14 3 20l86 -2v35c0 62 19.833 109.667 59.5 143s92.834 50 159.501 50c33.333 0 63.5 -4.66699 90.5 -14s50 -22.666 69 -39.999
s33.667 -38.333 44 -63s15.5 -52 15.5 -82c0 -25.333 -5 -51.333 -15 -78h-2l2 -1c-25.333 -6.66699 -45.333 -16.5 -60 -29.5s-22 -26.833 -22 -41.5c0 -8.66699 2.83301 -17.834 8.5 -27.501s15.167 -20.167 28.5 -31.5l37 -33c49.333 -44 74 -87.333 74 -130
c0 -20.667 -4.5 -39.667 -13.5 -57s-21.333 -32.166 -37 -44.499s-34.334 -22 -56.001 -29s-45.167 -10.5 -70.5 -10.5c-48.667 0 -93 9.66699 -133 29c0.666992 12 4.16699 25.333 10.5 40s14.166 26 23.499 34c14 -8 28 -13.833 42 -17.5s27.667 -5.5 41 -5.5
c23.333 0 43 5.5 59 16.5s24 25.167 24 42.5c-0.666992 9.33301 -3.83398 20 -9.50098 32s-15.834 24.333 -30.501 37l-41 35c-22.667 19.333 -39.334 38.333 -50.001 57s-16 36.667 -16 54c0 24 8.83301 46.833 26.5 68.5s41.5 38.5 71.5 50.5c2.66699 13.333 4 25 4 35
c0 36 -9.83301 65.667 -29.5 89s-48.5 35 -86.5 35c-75.333 0 -113 -41.333 -113 -124v-495c-7.33301 -1.33301 -15.666 -2.33301 -24.999 -3s-18.666 -1 -27.999 -1c-10 0 -19.5 0.333008 -28.5 1s-16.833 1.66699 -23.5 3z" />
    <glyph glyph-name="endash" unicode="&#x2013;" horiz-adv-x="531" 
d="M466 223h-401c-2.66699 11.333 -4 25 -4 41s1.33301 30.333 4 43h401c2.66699 -12.667 4 -27 4 -43s-1.33301 -29.667 -4 -41z" />
    <glyph glyph-name="emdash" unicode="&#x2014;" horiz-adv-x="799" 
d="M719 223l-640 0.000976562c-2.66699 11.333 -4 25 -4 41s1.33301 30.333 4 43h640c3.33301 -12 5 -26.333 5 -43s-1.66699 -30.334 -5 -41.001z" />
    <glyph glyph-name="quoteleft" unicode="&#x2018;" horiz-adv-x="228" 
d="M54 518c-8 18 -12.001 39.998 -12.001 65.998c0 40.667 11.167 76.834 33.5 108.501s55.5 55.5 99.5 71.5c18 -9.33301 27 -23.333 27 -42v-9c-44.667 -20.667 -68 -49 -70 -85c23.333 -1.33301 37.833 -6.33301 43.5 -15s8.5 -24 8.5 -46
c0 -15.333 -1.5 -27.166 -4.5 -35.499s-7.5 -14.5 -13.5 -18.5s-13.5 -6.33301 -22.5 -7s-19.5 -1 -31.5 -1c-27.333 0 -46.666 4.33301 -57.999 13z" />
    <glyph glyph-name="quoteright" unicode="&#x2019;" horiz-adv-x="228" 
d="M174 750c7.33301 -18 10.998 -43.6689 10.998 -77.002c0 -17.333 -2.83301 -34.333 -8.5 -51s-14 -32.5 -25 -47.5s-24.667 -28.667 -41 -41s-35.5 -22.5 -57.5 -30.5c-8.66699 4 -15.5 10.333 -20.5 19s-7.16699 19.334 -6.5 32.001c44.667 22 68 50.333 70 85
c-14 2 -24.667 4.33301 -32 7s-12.166 6.33398 -14.499 11.001s-3.83301 10.5 -4.5 17.5s-1 15.167 -1 24.5c0 16 1.5 29 4.5 39s7.83301 16 14.5 18s14.334 3.66699 23.001 5s18.667 2 30 2c26 0 45.333 -4.33301 58 -13z" />
    <glyph glyph-name="quotesinglbase" unicode="&#x201a;" horiz-adv-x="229" 
d="M178 101c7.33301 -16 10.999 -41.335 10.999 -76.002c0 -17.333 -2.83301 -34.5 -8.5 -51.5s-14 -33 -25 -48s-24.667 -28.5 -41 -40.5s-35.5 -22 -57.5 -30c-8.66699 4 -15.5 10.5 -20.5 19.5s-7.5 19.5 -7.5 31.5c19.333 8.66699 35.833 20.5 49.5 35.5
s20.834 31.5 21.501 49.5c-14 2 -24.5 4.33301 -31.5 7s-11.667 6.33398 -14 11.001s-4 10.5 -5 17.5s-1.5 15.5 -1.5 25.5c0 14.667 1.5 26.667 4.5 36s7.66699 15.333 14 18s13.833 4.83398 22.5 6.50098s18.667 2.5 30 2.5c26 0 45.667 -4.66699 59 -14z" />
    <glyph glyph-name="quotedblleft" unicode="&#x201c;" horiz-adv-x="422" 
d="M53 518c-8 18 -12.001 39.998 -12.001 65.998c0 40.667 11.167 76.834 33.5 108.501s55.5 55.5 99.5 71.5c18 -9.33301 27 -23.333 27 -42v-9c-44.667 -20.667 -68 -49 -70 -85c23.333 -1.33301 37.833 -6.33301 43.5 -15s8.5 -24 8.5 -46
c0 -15.333 -1.5 -27.166 -4.5 -35.499s-7.5 -14.5 -13.5 -18.5s-13.5 -6.33301 -22.5 -7s-19.5 -1 -31.5 -1c-27.333 0 -46.666 4.33301 -57.999 13zM246.999 517.998c-8 18 -12.001 39.998 -12.001 65.998c0 40.667 11.167 76.834 33.5 108.501s55.5 55.5 99.5 71.5
c18 -9.33301 27 -23.333 27 -42v-9c-44.667 -20.667 -68 -49 -70 -85c23.333 -1.33301 37.833 -6.33301 43.5 -15s8.5 -24 8.5 -46c0 -15.333 -1.5 -27.166 -4.5 -35.499s-7.5 -14.5 -13.5 -18.5s-13.5 -6.33301 -22.5 -7s-19.5 -1 -31.5 -1
c-27.333 0 -46.666 4.33301 -57.999 13z" />
    <glyph glyph-name="quotedblright" unicode="&#x201d;" horiz-adv-x="422" 
d="M176 750c7.33301 -18 10.998 -43.667 10.998 -77c0 -17.333 -2.83301 -34.333 -8.5 -51s-14 -32.5 -25 -47.5s-24.667 -28.667 -41 -41s-35.5 -22.5 -57.5 -30.5c-8.66699 4 -15.5 10 -20.5 18s-7.16699 19 -6.5 33c44.667 22 68 50.333 70 85
c-14 2 -24.667 4.33301 -32 7s-12.166 6.33398 -14.499 11.001s-3.83301 10.5 -4.5 17.5s-1 15.167 -1 24.5c0 16 1.5 28.833 4.5 38.5s7.83301 15.667 14.5 18s14.334 4.16602 23.001 5.49902s18.667 2 30 2c26 0 45.333 -4.33301 58 -13zM369.998 750
c7.33301 -18 10.998 -43.667 10.998 -77c0 -17.333 -2.83301 -34.333 -8.5 -51s-14 -32.5 -25 -47.5s-24.667 -28.667 -41 -41s-35.5 -22.5 -57.5 -30.5c-8.66699 4 -15.5 10 -20.5 18s-7.16699 19 -6.5 33c44.667 22 68 50.333 70 85c-14 2 -24.667 4.33301 -32 7
s-12.166 6.33398 -14.499 11.001s-3.83301 10.5 -4.5 17.5s-1 15.167 -1 24.5c0 16 1.5 28.833 4.5 38.5s7.83301 15.667 14.5 18s14.334 4.16602 23.001 5.49902s18.667 2 30 2c26 0 45.333 -4.33301 58 -13z" />
    <glyph glyph-name="quotedblbase" unicode="&#x201e;" horiz-adv-x="423" 
d="M178 101c7.33301 -16 10.999 -41.335 10.999 -76.002c0 -17.333 -2.83301 -34.5 -8.5 -51.5s-14 -33 -25 -48s-24.667 -28.5 -41 -40.5s-35.5 -22 -57.5 -30c-8.66699 4 -15.5 10.5 -20.5 19.5s-7.5 19.5 -7.5 31.5c19.333 8.66699 35.833 20.5 49.5 35.5
s20.834 31.5 21.501 49.5c-14 2 -24.5 4.33301 -31.5 7s-11.667 6.33398 -14 11.001s-4 10.5 -5 17.5s-1.5 15.5 -1.5 25.5c0 14.667 1.5 26.667 4.5 36s7.66699 15.333 14 18s13.833 4.83398 22.5 6.50098s18.667 2.5 30 2.5c26 0 45.667 -4.66699 59 -14zM371.999 100.998
c7.33301 -16 10.999 -41.3359 10.999 -76.0029c0 -17.333 -2.83301 -34.5 -8.5 -51.5s-14 -33 -25 -48s-24.667 -28.5 -41 -40.5s-35.5 -22 -57.5 -30c-8.66699 4 -15.5 10.333 -20.5 19s-7.5 19.334 -7.5 32.001c19.333 8.66699 35.833 20.5 49.5 35.5
s20.834 31.5 21.501 49.5c-14 2 -24.5 4.33301 -31.5 7s-11.667 6.33398 -14 11.001s-4 10.5 -5 17.5s-1.5 15.5 -1.5 25.5c0 14.667 1.5 26.667 4.5 36s7.66699 15.333 14 18s13.833 4.83398 22.5 6.50098s18.667 2.5 30 2.5c26 0 45.667 -4.66699 59 -14z" />
    <glyph glyph-name="bullet" unicode="&#x2022;" horiz-adv-x="447" 
d="M125 357c26 16 59.665 24 100.998 24c42 0 75 -8 99 -24c10 -19.333 15 -47.666 15 -84.999s-5 -66 -15 -86c-21.333 -15.333 -53.666 -23 -96.999 -23s-77.666 7.66699 -102.999 23c-10 20 -15 48.667 -15 86s5 65.666 15 84.999z" />
    <glyph glyph-name="guilsinglleft" unicode="&#x2039;" horiz-adv-x="332" 
d="M290 418l-139 -161l144 -166c-4 -11.333 -11.833 -22.333 -23.5 -33s-23.5 -17.667 -35.5 -21l-197 185c-4 9.33301 -6 20.333 -6 33s2 23.667 6 33l193 184c12 -3.33301 23.667 -10.333 35 -21s19 -21.667 23 -33z" />
    <glyph glyph-name="guilsinglright" unicode="&#x203a;" horiz-adv-x="332" 
d="M42 92l137.999 161l-144 165c4 10.667 12 21.5 24 32.5s23.667 18.167 35 21.5l198 -185c8.66699 -22 8.66699 -43.667 0 -65l-194 -185c-11.333 3.33301 -22.666 10.5 -33.999 21.5s-19 22.167 -23 33.5z" />
    <glyph glyph-name="fraction" unicode="&#x2044;" horiz-adv-x="225" 
d="M-126 0l375.999 683c13.333 4 31.166 5.83301 53.499 5.5s38.5 -2.16602 48.5 -5.49902l-377 -683c-13.333 -4 -31.166 -5.83301 -53.499 -5.5s-38.166 2.16602 -47.499 5.49902z" />
    <glyph glyph-name="uni2074" unicode="&#x2074;" horiz-adv-x="420" 
d="M309 543l-1 -50.999h61c2 -9.33301 3 -21.166 3 -35.499s-2.33301 -27.166 -7 -38.499h-57v-78c-10.667 -2.66699 -24.334 -4 -41.001 -4s-31.334 1.33301 -44.001 4v42l1 36l-41 -1h-119c-13.333 21.333 -20 38.166 -20 50.499s5 28.5 15 48.5l117 253
c14 1.33301 29.333 0.166016 46 -3.50098s29.334 -9.16699 38.001 -16.5l-76 -164c-21.333 -45.333 -38.333 -76.333 -51 -93l2 -2c16.667 1.33301 40.334 2 71.001 2h18c-0.666992 5.33301 -1 13.333 -1 24v33c0 19.333 5.33301 34.666 16 45.999s24.667 17 42 17h25l3 -3
v-66z" />
    <glyph glyph-name="Euro" unicode="&#x20ac;" horiz-adv-x="566" 
d="M496 515c-50.667 38.667 -101 57.998 -151 57.998c-73.333 0 -118.666 -46.667 -135.999 -140h206c2.66699 -12.667 4 -24.834 4 -36.501s-1.33301 -23.167 -4 -34.5h-214v-39c0 -18 0.333008 -31.333 1 -40h213c2.66699 -12.667 4 -24.834 4 -36.501
s-1.33301 -23.167 -4 -34.5h-205c17.333 -91.333 62.333 -137 135 -137c50 0 100.333 19.333 151 58c24.667 -15.333 40.667 -37 48 -65c-64.667 -54 -135.667 -81 -213 -81c-126.667 0 -202.334 75 -227.001 225h-79c-2.66699 11.333 -4 22.833 -4 34.5
s1.33301 23.834 4 36.501h72c-0.666992 8.66699 -1 21.834 -1 39.501s0.333008 30.834 1 39.501h-72c-2.66699 11.333 -4 22.833 -4 34.5s1.33301 23.834 4 36.501h79c24 152 99.667 228 227 228c76.667 0 147.667 -27 213 -81c-3.33301 -12 -9.33301 -24.167 -18 -36.5
s-18.667 -21.833 -30 -28.5z" />
    <glyph glyph-name=".notdef.001" horiz-adv-x="186" 
 />
    <glyph glyph-name="nonmarkingreturn" horiz-adv-x="333" 
 />
    <glyph glyph-name="nonbreakingspace" horiz-adv-x="220" 
 />
    <glyph glyph-name="commaaccent" horiz-adv-x="398" 
d="M254 -58c6.66699 -16 10.002 -33.335 10.002 -52.002c0 -33.333 -11 -63.5 -33 -90.5s-52.333 -47.833 -91 -62.5c-18 5.33301 -29.333 20 -34 44c40 26 60 58 60 96c0 18.667 -4.33301 36 -13 52c13.333 8.66699 29.666 14.334 48.999 17.001
s36.666 1.33398 51.999 -3.99902z" />
    <glyph glyph-name="grave.cap" horiz-adv-x="398" 
d="M110 902l202.999 -119.999c-5.33301 -26 -15.666 -44 -30.999 -54l-218 90c2 16 7.66699 32.167 17 48.5s19 28.166 29 35.499z" />
    <glyph glyph-name="acute.cap" horiz-adv-x="398" 
d="M98 782l203 119.998c10 -7.33301 19.667 -19.166 29 -35.499s15 -32.5 17 -48.5l-218 -90c-7.33301 4.66699 -14 12.334 -20 23.001s-9.66699 21 -11 31z" />
    <glyph glyph-name="circumflex.cap" horiz-adv-x="398" 
d="M311 737l-113 75l-115 -83c-8.66699 3.33301 -17.667 9.5 -27 18.5s-15.333 18.167 -18 27.5l114 113c31.333 6 62 6 92 0l112 -106c-3.33301 -10.667 -9.5 -20.167 -18.5 -28.5s-17.833 -13.833 -26.5 -16.5z" />
    <glyph glyph-name="dieresis.cap" horiz-adv-x="398" 
d="M256 830c12 8 27.666 12.002 46.999 12.002c18.667 0 33.167 -2.66699 43.5 -8s15.5 -20.333 15.5 -45c0 -22 -3.66699 -36.333 -11 -43s-23.333 -10 -48 -10c-23.333 0 -38.666 3.83301 -45.999 11.5s-11 21.5 -11 41.5c0 7.33301 0.833008 14.666 2.5 21.999
s4.16699 13.666 7.5 18.999zM44.999 830.002c6 4 13.167 7 21.5 9s17.166 3 26.499 3c18 0 32.333 -2.83301 43 -8.5s16 -20.5 16 -44.5c0 -22 -4 -36.333 -12 -43s-23.667 -10 -47 -10c-25.333 0 -41.166 4.5 -47.499 13.5s-9.5 22.167 -9.5 39.5c0 15.333 3 29 9 41z" />
    <glyph glyph-name="caron.cap" horiz-adv-x="398" 
d="M85 892l112.001 -74l115 82c9.33301 -3.33301 18.666 -9.33301 27.999 -18s15.333 -17.667 18 -27l-115 -113c-32 -6.66699 -62.667 -7 -92 -1l-112 106c8 22.667 23.333 37.667 46 45z" />
    <glyph glyph-name="ring.cap" horiz-adv-x="398" 
d="M199 667c-36 0 -65.167 10.833 -87.5 32.5s-33.5 48.5 -33.5 80.5c0 16 3 31 9 45s14.5 26 25.5 36s23.833 18 38.5 24s30.667 9 48 9s33.5 -3 48.5 -9s27.833 -14 38.5 -24s19 -22 25 -36s9 -29 9 -45c0 -32 -11.167 -58.833 -33.5 -80.5s-51.5 -32.5 -87.5 -32.5z
M199 835c-16.667 0 -29.334 -5.66699 -38.001 -17s-13 -24 -13 -38c0 -13.333 4.33301 -25.666 13 -36.999s21.334 -17 38.001 -17s29 5.66699 37 17s12 23.666 12 36.999c0 14 -3.83301 26.667 -11.5 38s-20.167 17 -37.5 17z" />
    <glyph glyph-name="tilde.cap" horiz-adv-x="398" 
d="M210 756l-56.001 27.001c-6 2.66699 -11.667 4.83398 -17 6.50098s-10.666 2.5 -15.999 2.5c-7.33301 0.666992 -13.833 -1.16602 -19.5 -5.49902s-12.167 -10.833 -19.5 -19.5l-12 -14c-10 0 -20.167 3 -30.5 9s-17.5 13.333 -21.5 22l9 20
c10.667 23.333 25.334 41.333 44.001 54s38.667 19 60 19c19.333 0 38.333 -5.33301 57 -16l56 -26c4.66699 -2.66699 9.5 -4.83398 14.5 -6.50098s10.167 -2.5 15.5 -2.5c13.333 -0.666992 27.333 7.66602 42 24.999l12 14c24.667 -0.666992 42 -11.334 52 -32.001l-9 -19
c-22.667 -48.667 -56.667 -73 -102 -73c-16.667 0 -36.334 5 -59.001 15z" />
    <glyph glyph-name="dotaccent.cap" horiz-adv-x="398" 
d="M144 845c14 8 32.6689 12 56.002 12c25.333 0 42.166 -3.16699 50.499 -9.5s12.5 -22.166 12.5 -47.499c0 -22 -3 -37 -9 -45s-24 -12 -54 -12c-26 0 -43.333 3.16699 -52 9.5s-13 22.166 -13 47.499c0 8 0.666992 16 2 24s3.66602 15 6.99902 21z" />
    <glyph glyph-name="caron.alt" horiz-adv-x="424" 
d="M201 566l12.002 214.001c13.333 3.33301 29.666 3.66602 48.999 0.999023s34.666 -8 45.999 -16l-47 -204c-9.33301 -3.33301 -20 -4.5 -32 -3.5s-21.333 3.83301 -28 8.5z" />
    <glyph glyph-name="commaaccent.cap" horiz-adv-x="398" 
d="M254 -58c6.66699 -16 10.002 -33.335 10.002 -52.002c0 -33.333 -11 -63.5 -33 -90.5s-52.333 -47.833 -91 -62.5c-18 5.33301 -29.333 20 -34 44c40 26 60 58 60 96c0 18.667 -4.33301 36 -13 52c13.333 8.66699 29.666 14.334 48.999 17.001
s36.666 1.33398 51.999 -3.99902z" />
    <glyph glyph-name="a.smcp" horiz-adv-x="544" 
d="M380 122l-48.999 -0.999023h-124l-53 1l-43 -123c-11.333 -2.66699 -26.666 -4 -45.999 -4s-35.333 2.33301 -48 7l-4 6l199 538c16 2.66699 36.167 4 60.5 4s44.5 -1.33301 60.5 -4l198 -541c-16 -8 -33.833 -12 -53.5 -12s-34.334 3.16699 -44.001 9.5
s-17.834 19.166 -24.501 38.499zM183.001 206.001l45.001 1h84c21.333 -0.666992 34.333 -1 39 -1l-33 95c-13.333 38 -29.333 90.667 -48 158h-5c-16.667 -60 -30.334 -106 -41.001 -138z" />
    <glyph glyph-name="b.smcp" horiz-adv-x="548" 
d="M89 546c118 2 180.003 3.00195 186.003 3.00195c133.333 0 200 -47.667 200 -143c0 -24.667 -7.33301 -47.334 -22 -68.001s-34.334 -35.334 -59.001 -44.001c15.333 -4 29.666 -10.5 42.999 -19.5s25 -19.667 35 -32s17.833 -26 23.5 -41s8.5 -30.5 8.5 -46.5
c0 -50.667 -18.167 -89.667 -54.5 -117s-87.833 -41 -154.5 -41s-135.334 1 -206.001 3l-5 5v536zM280.003 248.002h-92.9971v-175c20 0 42.167 -0.166992 66.5 -0.5s47.166 1 68.499 4s39.166 11.5 53.499 25.5s21.5 33.333 21.5 58c0 11.333 -2.33301 22.333 -7 33
s-11.667 20 -21 28s-21.333 14.5 -36 19.5s-32.334 7.5 -53.001 7.5zM187.006 473.002v-147.001h84c66 0 99 24.333 99 73c0 20.667 -5 36.167 -15 46.5s-23.333 17.5 -40 21.5s-36.167 5.83301 -58.5 5.5s-45.5 -0.166016 -69.5 0.500977z" />
    <glyph glyph-name="c.smcp" horiz-adv-x="536" 
d="M404 332c0 94.667 -39.333 141.999 -118 141.999c-48 0 -82.833 -17.667 -104.5 -53s-32.5 -88.666 -32.5 -159.999c0 -60 13.167 -105.833 39.5 -137.5s60.833 -47.5 103.5 -47.5c23.333 0 48 4.83301 74 14.5s53 24.834 81 45.501c10.667 -6.66699 21 -16.667 31 -30
s16.667 -26 20 -38c-61.333 -54 -135.333 -81 -222 -81c-36 0 -68.5 6.33301 -97.5 19s-53.667 31 -74 55s-36.166 53.667 -47.499 89s-17 75.666 -17 120.999c0 48 6.33301 90 19 126s30.167 66 52.5 90s48.5 42 78.5 54s62.333 18 97 18c35.333 0 66.5 -5 93.5 -15
s49.667 -23 68 -39s32.166 -34 41.499 -54s14 -40.333 14 -61c0 -42 -20 -63 -60 -63c-10 0 -23.333 1.66699 -40 5z" />
    <glyph glyph-name="d.smcp" horiz-adv-x="584" 
d="M89 0l-5 5v536l5 5c78 2 147.333 3 208 3c47.333 0 86.666 -7.5 117.999 -22.5s56.333 -35.167 75 -60.5s31.834 -54.833 39.501 -88.5s11.5 -68.834 11.5 -105.501c0 -37.333 -3.83301 -72.666 -11.5 -105.999s-20.667 -62.5 -39 -87.5s-43.333 -44.833 -75 -59.5
s-71.5 -22 -119.5 -22c-61.333 0 -130.333 1 -207 3zM189 78l94 1c50 0.666992 87.5 16.667 112.5 48s37.5 79.666 37.5 144.999s-12.5 113.833 -37.5 145.5s-62.5 47.834 -112.5 48.501l-94 1v-389z" />
    <glyph glyph-name="e.smcp" horiz-adv-x="511" 
d="M188 129l-1 -45c24 1.33301 44 2 60 2h221c0 -16.667 -0.666992 -29 -2 -37c-6 -33.333 -27.667 -50 -65 -50h-256c-18.667 0 -33.5 5.66699 -44.5 17s-16.5 26.666 -16.5 45.999v478l5 6h363c2 -10 3 -23.5 3 -40.5s-2.66699 -32.5 -8 -46.5h-260l1 -51v-90l57 1h157
c3.33301 -10.667 5 -24.667 5 -42s-1.66699 -31.666 -5 -42.999h-214v-105z" />
    <glyph glyph-name="f.smcp" horiz-adv-x="468" 
d="M189 311l34.999 1h171c3.33301 -10.667 5 -24.667 5 -42s-1.66699 -31.333 -5 -42h-206v-228c-15.333 -2.66699 -33.166 -4 -53.499 -4s-37.5 1.33301 -51.5 4v541l5 5h355c4 -12 6 -25.667 6 -41c0 -31.333 -18.333 -47 -55 -47h-207l1 -79v-68z" />
    <glyph glyph-name="g.smcp" horiz-adv-x="564" 
d="M296 294c15.333 0.666992 34.001 1.16895 56.001 1.50195s48 0.5 78 0.5s50.667 -5 62 -15s17 -25.333 17 -46v-214c-67.333 -22.667 -140 -34 -218 -34c-44 0 -81.833 6.83301 -113.5 20.5s-57.334 33.667 -77.001 60s-34.334 56.666 -44.001 90.999
s-14.5 71.5 -14.5 111.5c0 49.333 6.83301 92.166 20.5 128.499s32.334 66.333 56.001 90s51.5 41.334 83.5 53.001s66.333 17.5 103 17.5c76 0 142.667 -18.333 200 -55c-2.66699 -14.667 -8.5 -29.5 -17.5 -44.5s-18.833 -26.167 -29.5 -33.5
c-47.333 30 -96.333 45 -147 45c-52 0 -91.833 -16.5 -119.5 -49.5s-41.5 -83.833 -41.5 -152.5c0 -133.333 53.333 -200 160 -200c34.667 0 67.667 4 99 12v78c0 15.333 1 31.666 3 48.999h-74c-32 0 -48 15 -48 45c0 16 2 29.667 6 41z" />
    <glyph glyph-name="h.smcp" horiz-adv-x="615" 
d="M427 326l-1.00098 59v161c14 2.66699 31.5 4 52.5 4s38.5 -1.33301 52.5 -4v-546c-15.333 -2.66699 -33.166 -4 -53.499 -4s-37.5 1.33301 -51.5 4v181l1 60l-50 -1h-139l-50 1l1 -60v-181c-14 -2.66699 -31.5 -4 -52.5 -4s-38.5 1.33301 -52.5 4v546
c14 2.66699 31.5 4 52.5 4s38.5 -1.33301 52.5 -4v-161l-1 -59l50 1h139z" />
    <glyph glyph-name="i.smcp" horiz-adv-x="280" 
d="M87 0v546c14 2.66699 31.333 4 52 4s38.667 -1.33301 54 -4v-546c-15.333 -2.66699 -33.333 -4 -54 -4s-38 1.33301 -52 4z" />
    <glyph glyph-name="j.smcp" horiz-adv-x="399" 
d="M39 102c31.333 -19.333 63.001 -29 95.001 -29s54.833 9.66699 68.5 29s20.5 49.333 20.5 90v354c7.33301 1.33301 15.5 2.33301 24.5 3s18.167 1 27.5 1c10 0 19.5 -0.333008 28.5 -1s17.167 -1.66699 24.5 -3v-352c0 -69.333 -14.333 -121 -43 -155
s-73.334 -51 -134.001 -51c-60 0 -109.333 13 -148 39c4.66699 30.667 16.667 55.667 36 75z" />
    <glyph glyph-name="k.smcp" horiz-adv-x="547" 
d="M527 28c-16.667 -22.667 -39.334 -34 -68.001 -34c-17.333 0 -30.666 4.16699 -39.999 12.5s-18.666 22.833 -27.999 43.5l-56 122c-11.333 24.667 -23.333 41.834 -36 51.501s-30.667 14.5 -54 14.5s-42 -0.666992 -56 -2v-236c-14 -2.66699 -31.5 -4 -52.5 -4
s-38.5 1.33301 -52.5 4v546c14 2.66699 31.5 4 52.5 4s38.5 -1.33301 52.5 -4v-222l40 1c10 0 17 1.33301 21 4s9.33301 9 16 19l104 162c9.33301 14 18.166 24 26.499 30s22.166 9 41.499 9s38 -1 56 -3l8 -8l-129 -196c-14 -21.333 -26.667 -36.333 -38 -45
c24.667 -5.33301 44.334 -15.333 59.001 -30s28 -35.334 40 -62.001l49 -108c15.333 -34.667 30 -57.667 44 -69z" />
    <glyph glyph-name="l.smcp" horiz-adv-x="466" 
d="M272 88l169.999 -0.000976562c0 -10 -1 -23 -3 -39c-6 -33.333 -28.333 -50 -67 -50h-228c-18.667 0 -33.5 5.5 -44.5 16.5s-16.5 26.5 -16.5 46.5v482l6 5h41c21.333 0 36.5 -5.16699 45.5 -15.5s13.5 -27.166 13.5 -50.499v-399c38.667 2.66699 66.334 4 83.001 4z" />
    <glyph glyph-name="m.smcp" horiz-adv-x="733" 
d="M67 1l53 544.999c20 4 43.167 6 69.5 6s48.5 -2 66.5 -6l77 -253c18 -57.333 28.667 -96.666 32 -117.999h5c3.33301 24.667 13.333 64 30 118l77 253c18 4 40.667 6 68 6s50 -2 68 -6l53 -545c-20 -4 -37.167 -6 -51.5 -6s-31.5 1.33301 -51.5 4l-22 268
c-3.33301 40 -5 97 -5 171h-5l-112 -356c-13.333 -2.66699 -31 -4 -53 -4s-39.667 1.33301 -53 4l-111 356h-5c0 -66 -2 -123 -6 -171l-21 -268c-20 -2.66699 -37.5 -4 -52.5 -4s-31.833 2 -50.5 6z" />
    <glyph glyph-name="n.smcp" horiz-adv-x="621" 
d="M532 550l5.00098 -5.99902v-543c-18.667 -3.33301 -40.167 -5 -64.5 -5s-43.5 1.33301 -57.5 4l-176 310c-8.66699 13.333 -28.334 50.666 -59.001 111.999l-3 -1c4 -80 6 -143.667 6 -191v-230c-16 -2.66699 -32.667 -4 -50 -4s-33.666 1.33301 -48.999 4v544
c16.667 4 37.167 6 61.5 6s44.166 -1.33301 59.499 -4l177 -311c4.66699 -8 24.667 -47.333 60 -118l5 1c-6.66699 90 -10 155 -10 195v176c0 22.667 4.33301 38.5 13 47.5s23.667 13.5 45 13.5h37z" />
    <glyph glyph-name="o.smcp" horiz-adv-x="590" 
d="M414 137c17.333 40 26.0029 85.001 26.0029 135.001c0 66.667 -12 117.667 -36 153s-60.667 53 -110 53c-30.667 0 -55.334 -6.66699 -74.001 -20s-33.167 -30 -43.5 -50s-17.333 -42.167 -21 -66.5s-5.83398 -47.5 -6.50098 -69.5c0.666992 -21.333 2.66699 -44 6 -68
s10.166 -46 20.499 -66s25 -36.667 44 -50s44.167 -20 75.5 -20c28.667 0 53.167 6.16699 73.5 18.5s35.5 29.166 45.5 50.499zM138.003 511.001c42 32 94.332 47.999 156.999 47.999c43.333 0 81.5 -7.66699 114.5 -23s59.5 -36.166 79.5 -62.499
s35.167 -56.833 45.5 -91.5s15.5 -71.334 15.5 -110.001c0 -39.333 -5.16699 -76.166 -15.5 -110.499s-26 -64.666 -47 -90.999s-47.667 -46.833 -80 -61.5s-69.833 -22 -112.5 -22c-43.333 0 -80.833 7.5 -112.5 22.5s-58.167 35.5 -79.5 61.5s-37.166 56.167 -47.499 90.5
s-15.5 71.166 -15.5 110.499c0 46.667 8 91.5 24 134.5s40.667 77.833 74 104.5z" />
    <glyph glyph-name="p.smcp" horiz-adv-x="510" 
d="M274 190l-85 0.000976562v-190c-7.33301 -1.33301 -15.5 -2.33301 -24.5 -3s-18.5 -1 -28.5 -1c-9.33301 0 -18.5 0.333008 -27.5 1s-17.167 1.66699 -24.5 3v541l5 5c120 2 181.667 3 185 3c63.333 0 114 -15 152 -45s57 -74.667 57 -134
c0 -58.667 -18.833 -103.334 -56.5 -134.001s-88.5 -46 -152.5 -46zM189 469.001v-199c10 0.666992 22 1 36 1h48c36 0 61.833 9.5 77.5 28.5s23.5 42.5 23.5 70.5c0 12.667 -1.83301 25 -5.5 37s-9.5 22.5 -17.5 31.5s-18.5 16.167 -31.5 21.5s-28.833 8 -47.5 8h-48
c-14 0 -25.667 0.333008 -35 1z" />
    <glyph glyph-name="q.smcp" horiz-adv-x="591" 
d="M138 511c42 32 94.333 48 157 48c44 0 82.333 -7.66699 115 -23s59.167 -36.166 79.5 -62.499s35.5 -56.833 45.5 -91.5s15 -71.334 15 -110.001c0 -56 -10.167 -105.833 -30.5 -149.5s-51.5 -76.5 -93.5 -98.5l7 -4c42 -31.333 83 -47.333 123 -48
c-0.666992 -22.667 -8.5 -41.167 -23.5 -55.5s-33.167 -21.5 -54.5 -21.5c-11.333 0 -23 2.33301 -35 7s-24 12.334 -36 23.001l-84 65c-8 -2 -16.333 -3 -25 -3c-44 0 -82.333 7.5 -115 22.5s-59.5 35.5 -80.5 61.5s-36.667 56.167 -47 90.5s-15.5 71.166 -15.5 110.499
c0 46.667 8 91.5 24 134.5s40.667 77.833 74 104.5zM414 137c17.333 40 26.001 85.001 26.001 135.001c0 66.667 -12 117.667 -36 153s-60.667 53 -110 53c-30.667 0 -55.334 -6.66699 -74.001 -20s-33.167 -30 -43.5 -50s-17.5 -41.667 -21.5 -65s-6 -47 -6 -71
c0 -21.333 2 -44 6 -68s11 -46 21 -66s24.5 -36.667 43.5 -50s44.167 -20 75.5 -20c28.667 0 53.167 6.16699 73.5 18.5s35.5 29.166 45.5 50.499z" />
    <glyph glyph-name="r.smcp" horiz-adv-x="547" 
d="M492 386c0 -17.333 -3.00488 -33.833 -9.00488 -49.5s-14.167 -29.667 -24.5 -42s-22.666 -23 -36.999 -32s-29.5 -15.5 -45.5 -19.5c28.667 -10 51 -33 67 -69l37 -84c6.66699 -15.333 13.5 -28.166 20.5 -38.499s13.833 -18.833 20.5 -25.5
c-16 -22 -39.333 -33 -70 -33c-17.333 0 -30.5 4.16699 -39.5 12.5s-17.833 22.166 -26.5 41.499l-49 111c-9.33301 20 -20.166 34.333 -32.499 43s-30.166 13 -53.499 13h-61v-214c-8 -1.33301 -16.667 -2.33301 -26 -3s-18.666 -1 -27.999 -1s-18.333 0.333008 -27 1
s-16.667 1.66699 -24 3v541l5 5c70.667 2 137.334 3 200.001 3s112.167 -13.667 148.5 -41s54.5 -68 54.5 -122zM280.995 469h-92v-174c22.667 0.666992 41.5 1.16699 56.5 1.5s26.167 0.5 33.5 0.5c38 0 65 8.5 81 25.5s24 37.5 24 61.5s-8 44.167 -24 60.5
s-42.333 24.5 -79 24.5z" />
    </font>
</defs>
</svg>
