<?xml version="1.0" standalone="no"?>
<!DOCTYPE svg PUBLIC "-//W3C//DTD SVG 1.1//EN" "http://www.w3.org/Graphics/SVG/1.1/DTD/svg11.dtd" >
<svg>
<metadata>
Created by FontForge 20090914 at Sun Mar  1 17:55:48 2015
 By www-data
(c) EuroFONT 1998
</metadata>
<defs>
<font id="EFNTess" horiz-adv-x="2089" >
  <font-face 
    font-family="EFN Tess"
    font-weight="400"
    font-stretch="normal"
    units-per-em="2048"
    panose-1="0 0 4 0 0 0 0 0 0 0"
    ascent="1638"
    descent="-410"
    x-height="1153"
    cap-height="1552"
    bbox="-72 -446.018 2068 1930"
    underline-thickness="123"
    underline-position="-195"
    unicode-range="U+0020-U+2122"
  />
<missing-glyph horiz-adv-x="1024" 
d="M128 0v1929h768v-1929h-768zM256 128h512v1673h-512v-1673z" />
    <glyph glyph-name=".notdef" horiz-adv-x="1024" 
d="M128 0v1929h768v-1929h-768zM256 128h512v1673h-512v-1673z" />
    <glyph glyph-name="space" unicode=" " horiz-adv-x="642" 
 />
    <glyph glyph-name="exclam" unicode="!" horiz-adv-x="629" 
d="M470 474h-305l-33 1078h369zM514 140c0 -46.667 -19.5 -84.667 -58.5 -114s-85.833 -44 -140.5 -44c-59.333 0 -106.5 14.667 -141.5 44s-52.5 67.333 -52.5 114c0 47.333 18 87.333 54 120s79.333 49 130 49c60 0 109.833 -15.833 149.5 -47.5s59.5 -72.167 59.5 -121.5
z" />
    <glyph glyph-name="quotedbl" unicode="&#x22;" horiz-adv-x="704" 
d="M614 1571l-40 -508h-135l-38 508h213zM297 1571l-38 -508h-136l-33 508h207z" />
    <glyph glyph-name="numbersign" unicode="#" horiz-adv-x="1700" 
d="M1611 944h-374l-67 -269h317v-205h-369l-147 -561h-234l145 561h-259l-143 -561h-229l142 561h-360v205h412l71 269h-357v205h409l128 491h229l-123 -491h257l123 491h236l-129 -491h322v-205zM1003 944h-257l-63 -269h253z" />
    <glyph glyph-name="dollar" unicode="$" horiz-adv-x="1379" 
d="M1197 437c0 -207.333 -113.668 -346.668 -341.001 -418.001v-212h-357v173c-26 0 -82.333 5.66699 -169 17c-46.667 5.33301 -94.667 18.333 -144 39l-79 277c141.333 -54 292.333 -81 453 -81c80.667 0 140.334 14 179.001 42c46 33.333 69 90.333 69 171
c0 68.667 -32 126.334 -96 173.001c-29.333 21.333 -96 55 -200 101c-122.667 54 -212.334 107 -269.001 159c-82.667 76.667 -124 169.667 -124 279c0 106.667 38.667 195.667 116 267c66.667 62.667 154.667 105.334 264 128.001v128h357v-120
c50.667 0 111.334 -16.667 182.001 -50l71 -269c-108 56.667 -232 85 -372 85c-158.667 0 -238 -63.333 -238 -190c0 -58.667 33 -109 99 -151c27.333 -16.667 93.333 -46.334 198 -89.001c267.333 -108.667 401 -261.667 401 -459z" />
    <glyph glyph-name="percent" unicode="%" horiz-adv-x="1991" 
d="M1537 1631l-806 -1631h-225l726 1471c-117.333 -32 -218 -48 -302 -48h-213c111.333 -50.667 167 -131.667 167 -243c0 -267.333 -135.333 -401 -406 -401c-268.667 0 -403 133.667 -403 401c0 263.333 134.333 395 403 395h452c84 0 211.333 18.667 382 56h225z
M1936 370c-2 -264 -135.001 -396 -399.001 -396c-141.333 0 -246.666 39 -315.999 117c-59.333 68 -89 161 -89 279c0 264.667 135 397 405 397c268.667 0 401.667 -132.333 399 -397zM649.999 1176c0 164.667 -57.333 247 -172 247c-112.667 0 -169 -81 -169 -243
c0 -162.667 56.333 -244 169 -244c114.667 0 172 80 172 240zM1707 366c0 165.333 -56.667 248 -170 248c-114 0 -171 -81.333 -171 -244c0 -162 57 -243 171 -243c113.333 0 170 79.667 170 239z" />
    <glyph glyph-name="ampersand" unicode="&#x26;" horiz-adv-x="1590" 
d="M1686 0h-401.002l-159 152c-148 -116 -314.333 -174 -499 -174c-146 0 -271.667 36.333 -377 109c-122 86 -182.333 204 -181 354c0.666992 99.333 28 187.333 82 264c38.667 56 88.667 103 150 141c44 28 71.667 42 83 42c-104 95.333 -156 202.333 -156 321
c0 120.667 47 213.334 141 278.001c86 58.667 199.667 88 341 88c154 0 273.333 -37.667 358 -113c76 -68 114 -155 114 -261c0 -92.667 -30 -172.667 -90 -240c-43.333 -48 -99.666 -87 -168.999 -117c-48 -20.667 -79.333 -31 -94 -31l322 -310c15.333 20.667 29 42 41 64
c30.667 52 52.667 102 66 150c23.333 86 35 172.333 35 259l234 -63c2 -92 -14 -191.667 -48 -299c-25.333 -80.667 -58.666 -150.334 -99.999 -209.001c-25.333 -36.667 -45 -59.667 -59 -69zM872.998 1197c0 108 -55.667 163 -167 165
c-44.667 0.666992 -81.667 -14.333 -111 -45s-44 -70.667 -44 -120c0 -50.667 20.333 -102 61 -154c32 -42 53 -63 63 -63c132 38.667 198 111 198 217zM947.998 326l-380 378c-114 -50 -171 -137.667 -171 -263c0 -70 28.667 -125 86 -165
c52.667 -36.667 120.667 -55 204 -55c100 0 187 35 261 105z" />
    <glyph glyph-name="quotesingle" unicode="'" horiz-adv-x="391" 
d="M297 1571l-38 -508h-134l-37 508h209z" />
    <glyph glyph-name="parenleft" unicode="(" horiz-adv-x="681" 
d="M595 -260l-123 0.000976562c-75.333 70.667 -140 151.667 -194 243c-129.333 219.333 -194 473 -194 761c0 235.333 64.667 454.666 194 657.999c54 84.667 118.667 162.667 194 234h123c-168 -236.667 -252 -535.667 -252 -897c0 -395.333 84 -728.333 252 -999z" />
    <glyph glyph-name="parenright" unicode=")" horiz-adv-x="681" 
d="M614 744c0 -288 -64.667 -541.668 -194 -761.001c-54 -91.333 -118.667 -172.333 -194 -243h-124c168.667 270.667 253 603.667 253 999c0 361.333 -84.333 660.333 -253 897h124c75.333 -71.333 140 -149.333 194 -234c129.333 -203.333 194 -422.666 194 -657.999z" />
    <glyph glyph-name="asterisk" unicode="*" horiz-adv-x="648" 
d="M650 1375l-257 -90l252 -96l-60 -96l-219 142l41 -253h-125l27 253l-213 -147l-63 92l249 105l-242 100l56 90l213 -149l-27 255h125l-41 -255l219 145z" />
    <glyph glyph-name="plus" unicode="+" horiz-adv-x="1356" 
d="M1262 658h-443v-422h-280v422h-453v247h453v396h280v-396h443v-247z" />
    <glyph glyph-name="comma" unicode="," horiz-adv-x="583" 
d="M476 140c0 -109.333 -103.001 -248.333 -309.001 -417h-159c121.333 120.667 182 212 182 274c-24.667 0 -48.5 15.5 -71.5 46.5s-34.5 63.167 -34.5 96.5c0 47.333 17.833 87.333 53.5 120s78.834 49 129.501 49c60.667 0 110.667 -15.833 150 -47.5
s59 -72.167 59 -121.5z" />
    <glyph glyph-name="hyphen" unicode="-" horiz-adv-x="859" 
d="M802 470h-748v253h748v-253z" />
    <glyph glyph-name="hyphen" unicode="&#x2010;" horiz-adv-x="859" 
d="M802 470h-748v253h748v-253z" />
    <glyph glyph-name="period" unicode="." horiz-adv-x="574" 
d="M485 140c0 -46.667 -19.1689 -84.667 -57.502 -114s-84.166 -44 -137.499 -44c-59.333 0 -106.833 14.667 -142.5 44s-53.5 67.333 -53.5 114c0 48 17.833 88.167 53.5 120.5s79.167 48.5 130.5 48.5c58.667 0 107.334 -15 146.001 -45c40.667 -32 61 -73.333 61 -124z
" />
    <glyph glyph-name="slash" unicode="/" horiz-adv-x="551" 
d="M558 1615l-468 -1779h-162l463 1779h167z" />
    <glyph glyph-name="zero" unicode="0" horiz-adv-x="1387" 
d="M1324 775c-0.666992 -244.667 -48.334 -435 -143.001 -571c-107.333 -153.333 -270.666 -230 -489.999 -230c-414.667 0 -623.334 267 -626.001 801c-2.66699 530.667 206 796 626 796c220.667 0 385 -78.333 493 -235c94.667 -136.667 141.334 -323.667 140.001 -561z
M948 775c0 356.667 -85.667 535 -257 535c-168 0 -252 -178.333 -252 -535c0 -354 84 -531 252 -531c171.333 0 257 177 257 531z" />
    <glyph glyph-name="one" unicode="1" horiz-adv-x="1166" 
d="M844 -3h-368v1225l-317 -69v274l685 136v-1566z" />
    <glyph glyph-name="two" unicode="2" horiz-adv-x="1387" 
d="M1224 274l-77.001 -277h-1034v285l489 376c74.667 58 129 110.333 163 157c51.333 72 77 154 77 246c0 74 -25.667 132.667 -77 176c-53.333 46 -126.666 69 -219.999 69c-168 0 -297.333 -33.667 -388 -101l71 284c118 57.333 258.667 86 422 86
c136 0 257 -33.667 363 -101c138 -87.333 207 -214.333 207 -381c0 -138 -43.333 -259 -130 -363c-56.667 -68 -149.667 -143.667 -279 -227l-358 -229h771z" />
    <glyph glyph-name="three" unicode="3" horiz-adv-x="1387" 
d="M1239 422c0 -166.667 -74.999 -289.333 -224.999 -368c-107.333 -56 -235 -84 -383 -84c-188.667 0 -353 27.333 -493 82v288c101.333 -66.667 230.666 -100 387.999 -100c223.333 0 335 74 335 222c0 140.667 -145.667 211 -437 211c-30.667 0 -57.667 -0.666992 -81 -2
l73 246c280 -2.66699 420 67 420 209c0 120 -99 180 -297 180c-156.667 0 -284 -29.333 -382 -88l67 276c-4 0 13.333 7 52 21c44.667 16 92.667 29 144 39c72.667 14 147.667 21 225 21c142.667 0 264.667 -25.667 366 -77c136.667 -68.667 205 -174.667 205 -318
c0 -140 -67.667 -244.667 -203 -314c-81.333 -41.333 -150.333 -62 -207 -62c63.333 0 136 -19.667 218 -59c143.333 -68 215 -175.667 215 -323z" />
    <glyph glyph-name="four" unicode="4" horiz-adv-x="1387" 
d="M1312 361h-163v-361h-370v357h-645l-82 293l671 900h422l-777 -915h411v439h370v-439h163v-274z" />
    <glyph glyph-name="five" unicode="5" horiz-adv-x="1387" 
d="M1258 499c0 -188 -74 -329.667 -222 -425c-109.333 -69.333 -233.333 -104 -372 -104c-190 0 -355 27.333 -495 82v284c101.333 -66.667 231 -100 389 -100c98.667 0 176.5 21.333 233.5 64s85.5 105 85.5 187c0 79.333 -28.333 142.333 -85 189s-134.667 70 -234 70
c-145.333 0 -270 -16.667 -374 -50l56 856h911v-267h-589l-25 -314h67c436 0 654 -157.333 654 -472z" />
    <glyph glyph-name="six" unicode="6" horiz-adv-x="1387" 
d="M1320 478c0 -182 -74.334 -317.333 -223.001 -406c-111.333 -65.333 -245.666 -98 -402.999 -98c-169.333 0 -307.333 65 -414 195c-118.667 144 -178 346 -178 606c0 275.333 77.667 485 233 629c123.333 114 270 171 440 171c177.333 0 327 -27 449 -81v-289
c-96.667 70 -222 105 -376 105c-152 0 -256.333 -63 -313 -189c-28 -62.667 -42 -137.667 -42 -225c95.333 56 202 84 320 84c138.667 0 252 -34 340 -102c111.333 -86 167 -219.333 167 -400zM952.999 501c0 84 -12.665 146.332 -37.998 186.999
c-34.667 56.667 -97.334 85 -188.001 85s-154.334 -27 -191.001 -81c-28.667 -42 -43 -105.667 -43 -191c0 -89.333 18.5 -153.666 55.5 -192.999s96.5 -59 178.5 -59c150.667 0 226 84 226 252z" />
    <glyph glyph-name="seven" unicode="7" horiz-adv-x="1387" 
d="M1301 1552l-559 -1578l-381 26l487 1272h-750v280h1203z" />
    <glyph glyph-name="eight" unicode="8" horiz-adv-x="1387" 
d="M1301 405c0 -144.667 -67.998 -256.336 -203.998 -335.003c-112 -64 -244.333 -96 -397 -96c-160.667 0 -294 28.667 -400 86c-134.667 73.333 -202 185 -202 335c0 136.667 62.333 242.334 187 317.001c80 47.333 144.333 71 193 71c-14.667 0 -46.334 11 -95.001 33
c-68.667 30.667 -124.667 69 -168 115c-60 64.667 -90 140 -90 226c0 146 69.667 257.333 209 334c106 58.667 226.667 88 362 88c141.333 0 263.333 -28.333 366 -85c136 -74.667 204 -187 204 -337c0 -172 -106.667 -282 -320 -330
c69.333 -21.333 128.666 -49.666 177.999 -84.999c118 -85.333 177 -197.666 177 -336.999zM905.002 1111c0 140.667 -68.333 211 -205 211c-140.667 0 -211 -70.333 -211 -211c0 -129.333 70.333 -194 211 -194c136.667 0 205 64.667 205 194zM915.002 440.998
c0 68 -12 118.667 -36 152c-33.333 46 -93 69 -179 69s-146.333 -22 -181 -66c-27.333 -34 -41 -85.667 -41 -155c0 -136.667 74 -205 222 -205c143.333 0 215 68.333 215 205z" />
    <glyph glyph-name="nine" unicode="9" horiz-adv-x="1387" 
d="M1291 777c0 -275.333 -77.667 -485 -233 -629c-123.333 -113.333 -270 -170 -440 -170c-176.667 0 -326.334 26.667 -449.001 80v289c96.667 -70 222 -105 376 -105c152.667 0 257 63 313 189c28 62.667 42 137.667 42 225c-95.333 -56 -201.666 -84 -318.999 -84
c-138.667 0 -252 34 -340 102c-112 86 -168 219.333 -168 400c0 182 74.333 317.333 223 406c111.333 66 246 99 404 99c168.667 0 306.667 -65.333 414 -196c118 -144 177 -346 177 -606zM900 1051c0 89.333 -18.5 153.667 -55.5 193s-96.5 59 -178.5 59
c-150 0 -225 -84 -225 -252c0 -84 12.333 -146.333 37 -187c35.333 -56.667 98 -85 188 -85c91.333 0 155.333 27 192 81c28 42 42 105.667 42 191z" />
    <glyph glyph-name="colon" unicode=":" horiz-adv-x="589" 
d="M499 967c0 -46.667 -20.332 -86.167 -60.999 -118.5s-87.667 -48.5 -141 -48.5c-61.333 0 -110 16 -146 48c-34 30 -51 69.667 -51 119c0 48 18 88.167 54 120.5s80 48.5 132 48.5c61.333 0 112.166 -15.667 152.499 -47s60.5 -72 60.5 -122zM499.001 186
c0 -46 -20.167 -84.002 -60.5 -114.002s-87.5 -45 -141.5 -45c-61.333 0 -110 15.333 -146 46c-34 28.667 -51 66.334 -51 113.001c0 48 18 88.5 54 121.5s80 49.5 132 49.5c61.333 0 112.333 -16.167 153 -48.5s60.667 -73.166 60 -122.499z" />
    <glyph glyph-name="semicolon" unicode=";" horiz-adv-x="589" 
d="M491 967c0 -47.333 -19.334 -87 -58.001 -119s-85.667 -48 -141 -48c-59.333 0 -107.166 15.667 -143.499 47s-54.5 71.333 -54.5 120c0 48 18.167 88.167 54.5 120.5s80.833 48.5 133.5 48.5c60 0 109.833 -15.667 149.5 -47s59.5 -72 59.5 -122zM486.999 140
c0 -109.333 -103 -248.333 -309 -417h-159c121.333 120.667 182 212 182 274c-25.333 0 -49.5 15.5 -72.5 46.5s-34.5 63.167 -34.5 96.5c0 47.333 18 87.333 54 120s79.333 49 130 49c60 0 109.833 -15.833 149.5 -47.5s59.5 -72.167 59.5 -121.5z" />
    <glyph glyph-name="less" unicode="&#x3c;" horiz-adv-x="1356" 
d="M1243 123l-1147 539v174l1147 545l21 -249l-821 -382l821 -376z" />
    <glyph glyph-name="equal" unicode="=" horiz-adv-x="1352" 
d="M1260 879h-1181v251h1181v-251zM1260 416h-1181v255h1181v-255z" />
    <glyph glyph-name="greater" unicode="&#x3e;" horiz-adv-x="1356" 
d="M1260 662l-1147 -539l-21 251l819 376l-819 382l21 249l1147 -545v-174z" />
    <glyph glyph-name="question" unicode="?" horiz-adv-x="1130" 
d="M1095 1184c0 -91.333 -28.334 -169.331 -85.001 -233.998c-33.333 -38.667 -92.333 -84.334 -177 -137.001c-72.667 -46 -117.667 -79 -135 -99c-32 -36 -48 -87.333 -48 -154v-90h-305v173c0 90 31.333 163.333 94 220l176 120c63.333 45.333 95 99.333 95 162
c0 47.333 -21 85.333 -63 114c-48 34 -119.667 51 -215 51c-136.667 0 -255 -29.333 -355 -88v280c143.333 46 292.333 69 447 69c156.667 0 284.334 -26.333 383.001 -79c125.333 -66.667 188 -169.334 188 -308.001zM713.999 144.002c0 -46.667 -20 -85 -60 -115
s-87.333 -45 -142 -45c-59.333 0 -105.833 14.5 -139.5 43.5s-50.5 67.833 -50.5 116.5c0 46.667 17.5 85.167 52.5 115.5s80.833 45.5 137.5 45.5c55.333 0 102.833 -14.667 142.5 -44s59.5 -68.333 59.5 -117z" />
    <glyph glyph-name="at" unicode="@" horiz-adv-x="1771" 
d="M1774 752c0 -176 -58.665 -324.665 -175.998 -445.998c-106.667 -110.667 -224.334 -166 -353.001 -166c-184 0 -276 71 -276 213c0 32.667 6.33301 76 19 130c-90 -178.667 -206.333 -268 -349 -268c-162.667 0 -244 108.667 -244 326c0 184 49 341 147 471
c95.333 126 207 189 335 189c133.333 0 304 -23 512 -69l-169 -662c-5.33301 -20 -8 -38.667 -8 -56c0 -76.667 43 -115 129 -115c74 0 142.333 42.333 205 127c68 91.333 102 200 102 326c0 187.333 -62.667 338.666 -188 453.999c-130 119.333 -307.667 179 -533 179
c-206.667 0 -376 -72 -508 -216c-127.333 -138 -191 -307.667 -191 -509c0 -200 64.5 -360.5 193.5 -481.5s299.833 -181.5 512.5 -181.5h115v-88l-115 -2c-256.667 -4.66699 -464 48 -622 158c-181.333 126.667 -272 315.334 -272 566.001
c0 263.333 78.667 472.166 236 626.499s371.666 231.5 642.999 231.5c264 0 474.667 -72 632 -216c148.667 -136.667 223 -310.334 223 -521.001zM1115 1024c-63.333 6.66699 -119 10 -167 10c-74 0 -140 -44.333 -198 -133c-61.333 -94 -92 -207 -92 -339
c0 -103.333 28 -155 84 -155c58 0 121 51.667 189 155c62 94.667 111 204.667 147 330z" />
    <glyph glyph-name="A" unicode="A" horiz-adv-x="1443" 
d="M1431 0h-391l-77 284h-474l-82 -284h-380l512 1552h378zM905 541l-176 639l-178 -639h354z" />
    <glyph glyph-name="B" unicode="B" horiz-adv-x="1429" 
d="M1349 466c0 -155.333 -50.333 -271 -151 -347c-106.667 -79.333 -274.667 -119 -504 -119h-556v1552h551c405.333 0 608 -128 608 -384c0 -176 -96 -296.667 -288 -362c226.667 -36 340 -149.333 340 -340zM919 1111c0 124 -76.667 186 -230 186h-181v-378h181
c66 0 119.333 14.667 160 44c46.667 34 70 83.333 70 148zM971 483c0 81.333 -30.667 137.334 -92 168.001c-42.667 21.333 -108.667 32 -198 32h-173v-409h173c84 0 146.333 9.33301 187 28c68.667 31.333 103 91.666 103 180.999z" />
    <glyph glyph-name="C" unicode="C" horiz-adv-x="1333" 
d="M1301 36c-164 -41.333 -316.999 -62 -458.999 -62c-255.333 0 -444.666 77 -567.999 231c-107.333 136 -161 326 -161 570c0 203.333 52.667 376.333 158 519c136 184.667 340.333 277 613 277c112 0 206 -20.333 282 -61l73 -273
c-82.667 42.667 -182.334 64 -299.001 64c-139.333 0 -248 -46.5 -326 -139.5s-117 -221.833 -117 -386.5c0 -171.333 36.333 -299.333 109 -384c77.333 -89.333 199.666 -134 366.999 -134c98.667 0 208 27.667 328 83v-304z" />
    <glyph glyph-name="D" unicode="D" horiz-adv-x="1512" 
d="M1412 781c0 -253.333 -72.667 -450.332 -218 -590.999c-132 -126.667 -301.667 -190 -509 -190h-545v1552h541c223.333 0 397 -58.333 521 -175c140 -130.667 210 -329.334 210 -596.001zM1030 775.001c0 179.333 -33.999 314 -101.999 404
c-59.333 78.667 -140.333 118 -243 118h-177v-1023h177c93.333 0 169.666 32.667 228.999 98c77.333 86 116 220.333 116 403z" />
    <glyph glyph-name="E" unicode="E" horiz-adv-x="1180" 
d="M1155 278v-278h-1019v1552h919l71 -276h-623v-346h541v-276h-541v-376h652z" />
    <glyph glyph-name="F" unicode="F" horiz-adv-x="1141" 
d="M1130 1276h-622v-365h543v-278h-543v-633h-368v1552h990v-276z" />
    <glyph glyph-name="G" unicode="G" horiz-adv-x="1479" 
d="M1370 0l-224.999 0.00195312v150c-64.667 -116 -190 -174 -376 -174c-228.667 0 -401.667 87.667 -519 263c-95.333 143.333 -143 320.666 -143 531.999c0 199.333 50 368.666 150 507.999c139.333 194.667 360 292 662 292c142.667 0 259 -20.333 349 -61l71 -273
c-18.667 12 -51.334 25 -98.001 39c-74.667 22.667 -153.334 34 -236.001 34c-169.333 0 -300.166 -46 -392.499 -138s-138.5 -224.333 -138.5 -397c0 -342.667 113 -514 339 -514c55.333 0 104 16 146 48c47.333 36.667 71 84.667 71 144v414h340v-867z" />
    <glyph glyph-name="H" unicode="H" horiz-adv-x="1489" 
d="M1360 0h-370v679h-487v-679h-367v1552h367v-593h487v593h370v-1552z" />
    <glyph glyph-name="I" unicode="I" horiz-adv-x="635" 
d="M503 0h-371v1552h371v-1552z" />
    <glyph glyph-name="J" unicode="J" horiz-adv-x="1099" 
d="M905 600c0 -248.667 -67 -424.333 -201 -527c-86.667 -66 -198 -99 -334 -99c-102 0 -225.333 17 -370 51v282c81.333 -48.667 169 -73 263 -73c178.667 0 268 122 268 366v952h374v-952z" />
    <glyph glyph-name="K" unicode="K" horiz-adv-x="1383" 
d="M1389 0l-384 -26l-506 740v-714h-367v1552h367v-625l468 636l414 -3l-556 -737z" />
    <glyph glyph-name="L" unicode="L" horiz-adv-x="1099" 
d="M1101 295l-75 -295h-894v1552h367v-1257h602z" />
    <glyph glyph-name="M" unicode="M" horiz-adv-x="1742" 
d="M1617 0h-370v925l-297 -925h-169l-294 915v-915h-353v1552h443l305 -944l302 944h433v-1552z" />
    <glyph glyph-name="N" unicode="N" horiz-adv-x="1521" 
d="M1389 0h-311l-581 884v-884h-361v1552h317l577 -869v869h359v-1552z" />
    <glyph glyph-name="O" unicode="O" horiz-adv-x="1623" 
d="M1523 779c-1.33301 -234.667 -58.332 -423.667 -170.999 -567c-124.667 -158.667 -301.667 -238 -531 -238c-468.667 0 -705.334 268.333 -710.001 805c-2.66699 236 50 423 158 561c122.667 156.667 306.667 235 552 235c248 0 431.667 -79.333 551 -238
c102 -136 152.333 -322 151 -558zM1141 775c0 166 -17.666 288.334 -52.999 367.001c-48.667 108 -136.334 162.667 -263.001 164c-135.333 0.666992 -227.333 -48.333 -276 -147c-37.333 -74.667 -56 -201.334 -56 -380.001c0 -185.333 24.333 -318.333 73 -399
c50.667 -83.333 135.667 -124.333 255 -123c116 0.666992 199.667 46.667 251 138c46 82 69 208.667 69 380z" />
    <glyph glyph-name="P" unicode="P" horiz-adv-x="1393" 
d="M1320 1015c0 -192.667 -66.333 -333.667 -199 -423c-106 -71.333 -249.333 -107 -430 -107h-188v-485h-367v1552h530c436 0 654 -179 654 -537zM940 1015c0 188 -83.001 282 -249.001 282h-188v-555h188c54.667 0 103.334 14 146.001 42
c68.667 46.667 103 123.667 103 231z" />
    <glyph glyph-name="Q" unicode="Q" horiz-adv-x="1623" 
d="M1514 859c0 -197.333 -56 -348.335 -168 -453.002c-58.667 -55.333 -148 -103.666 -268 -144.999c158 0 300.667 5.66699 428 17l-81 -292c-205.333 -8 -409.333 -12 -612 -12c-242 0 -424.667 79.667 -548 239c-108.667 140.667 -163 329.334 -163 566.001
s53.333 423.667 160 561c122 156.667 305.667 235 551 235c240.667 0 424 -80.667 550 -242c100.667 -130.667 151 -288.667 151 -474zM1132 774.998c0 166.667 -17.667 289.333 -53 368c-48 108.667 -135.333 163 -262 163c-136 0 -228.333 -49.333 -277 -148
c-36.667 -74.667 -55 -201 -55 -379c0 -172 32.667 -303 98 -393c58 -79.333 134.667 -119 230 -119c212.667 0 319 169.333 319 508z" />
    <glyph glyph-name="R" unicode="R" horiz-adv-x="1406" 
d="M1362 0l-396.998 -0.000976562l-414 737h132c54.667 0 104 16 148 48c67.333 48 101.666 124.667 102.999 230c0.666992 107.333 -30.333 185 -93 233c-42.667 32.667 -95.334 49 -158.001 49h-182v-1297h-367v1552h553c419.333 0 629 -175.333 629 -526
c0 -153.333 -47 -275.666 -141 -366.999c-51.333 -50 -105.333 -83.667 -162 -101z" />
    <glyph glyph-name="S" unicode="S" horiz-adv-x="1237" 
d="M1170 449c0 -168 -71.002 -293.668 -213.002 -377.001c-112 -65.333 -250 -98 -414 -98c-161.333 0 -318.666 20.667 -471.999 62v277c128.667 -48.667 260.334 -73 395.001 -73c207.333 0 311 67 311 201c0 78 -59.667 149 -179 213l-332 178
c-118.667 86 -178 194.333 -178 325c0 122 53.333 222 160 300c105.333 76 239.333 114 402 114c75.333 0 144 -5.33301 206 -16c43.333 -7.33301 82 -17 116 -29c29.333 -10.667 42.333 -16 39 -16l67 -269c-104.667 48.667 -210.667 73 -318 73
c-196 0 -294 -59.333 -294 -178c0 -65.333 60.667 -127.666 182 -186.999c202 -98 315 -155.667 339 -173c122 -86.667 183 -195.667 183 -327z" />
    <glyph glyph-name="T" unicode="T" horiz-adv-x="1153" 
d="M1147 1552v-276h-387v-1276h-369v1276h-385v276h1141z" />
    <glyph glyph-name="U" unicode="U" horiz-adv-x="1485" 
d="M1360 554c0 -194 -62.667 -343 -188 -447c-110.667 -91.333 -254 -137 -430 -137c-174.667 0 -316 43.667 -424 131c-124 102.667 -186 253.667 -186 453v998h371v-1034c0 -176.667 79.667 -265 239 -265c87.333 0 152.333 27 195 81c36.667 46.667 55 108 55 184v1034
h368v-998z" />
    <glyph glyph-name="V" unicode="V" horiz-adv-x="1420" 
d="M1412 1552l-522 -1552h-359l-523 1552h389l311 -1086l322 1086h382z" />
    <glyph glyph-name="W" unicode="W" horiz-adv-x="2076" 
d="M2068 1552l-439 -1552h-359l-230 967l-236 -967h-359l-435 1552h383l234 -1053l234 1053h351l238 -1042l234 1042h384z" />
    <glyph glyph-name="X" unicode="X" horiz-adv-x="1410" 
d="M1402 0h-397l-311 526l-301 -526h-393l499 802l-499 750h397l301 -501l311 501h393l-508 -758z" />
    <glyph glyph-name="Y" unicode="Y" horiz-adv-x="1420" 
d="M1410 1552l-520 -827v-725h-370v729l-514 823h389l311 -549l315 549h389z" />
    <glyph glyph-name="Z" unicode="Z" horiz-adv-x="1145" 
d="M1149 286v-286h-1173l621 1272h-589l71 280h1030l-618 -1266h658z" />
    <glyph glyph-name="bracketleft" unicode="[" horiz-adv-x="652" 
d="M577 -289h-523v1933h523v-186h-230v-1547h230v-200z" />
    <glyph glyph-name="backslash" unicode="\" horiz-adv-x="556" 
d="M560 -68h-171l-440 1679h176z" />
    <glyph glyph-name="bracketright" unicode="]" horiz-adv-x="658" 
d="M595 -289h-522v200h226v1547h-226v188h522v-1935z" />
    <glyph glyph-name="asciicircum" unicode="^" horiz-adv-x="1080" 
d="M1051 788h-180l-336 614l-334 -614h-178l411 766h203z" />
    <glyph glyph-name="underscore" unicode="_" horiz-adv-x="1153" 
d="M1174 -373h-1172v96h1172v-96z" />
    <glyph glyph-name="grave" unicode="`" horiz-adv-x="1157" 
d="M783 1241l-436 156l69 161l367 -192v-125z" />
    <glyph glyph-name="a" unicode="a" horiz-adv-x="1149" 
d="M1065 0l-289.997 0.00195312v104c-108.667 -80 -235.334 -120 -380.001 -120c-121.333 0 -214 40.333 -278 121c-50 63.333 -75 137.666 -75 222.999c0 118 48.333 212.333 145 283c105.333 77.333 254.666 116 447.999 116c40 0 79.667 -2.66699 119 -8v48
c0 62 -10.667 106.667 -32 134c-41.333 52.667 -125.333 79 -252 79c-129.333 0 -237.333 -37.667 -324 -113v242c129.333 47.333 263.666 71 402.999 71c192.667 0 328.667 -36.667 408 -110c72 -66.667 108 -175.334 108 -326.001v-744zM750.003 269.002
l-0.000976562 265.999c-39.333 9.33301 -77.666 14 -114.999 14c-83.333 0 -151.5 -18.167 -204.5 -54.5s-79.5 -82.166 -79.5 -137.499c0 -53.333 18.667 -95 56 -125c34 -26.667 78 -40 132 -40c68.667 0 139 25.667 211 77z" />
    <glyph glyph-name="b" unicode="b" horiz-adv-x="1268" 
d="M1205 583c0 -160.667 -36.332 -297 -108.999 -409c-84 -129.333 -200.667 -194 -350 -194c-122 0 -230.667 31 -326 93v-73h-305v1558h315v-518c62 96 159.667 144 293 144c147.333 0 263.666 -50.667 348.999 -152c88.667 -106 133 -255.667 133 -449zM871.001 587
c0 236.667 -80 355 -240 355c-138 0 -207 -113.333 -207 -340v-333c76 -42.667 145 -64 207 -64c160 0 240 127.333 240 382z" />
    <glyph glyph-name="c" unicode="c" horiz-adv-x="1015" 
d="M996 48c-140 -42.667 -262.332 -64.001 -366.999 -64.001c-164 0 -298 45.333 -402 136c-119.333 104.667 -179 256 -179 454c0 164 46.667 302.333 140 415c106 127.333 253 191 441 191c135.333 0 235.666 -26.333 300.999 -79l37 -234
c-61.333 58.667 -145.666 88 -252.999 88c-94 0 -169 -28 -225 -84c-64 -64.667 -96 -160.667 -96 -288c0 -249.333 110 -372.666 330 -369.999c69.333 0.666992 132 13.667 188 39c39.333 17.333 67.666 36.333 84.999 57v-261z" />
    <glyph glyph-name="d" unicode="d" horiz-adv-x="1255" 
d="M1151 0l-307 0.000976562v109c-79.333 -87.333 -183 -131 -311 -131c-162.667 0 -286 61 -370 183c-72.667 105.333 -109 241.666 -109 408.999c0 162.667 35.333 299 106 409c84.667 134 209 201 373 201c144.667 0 244.667 -46.667 300 -140v518h318v-1558z
M833 290.001v391c0 166 -70 249 -210 249c-153.333 0 -230 -118.667 -230 -356c0 -248.667 76.667 -373 230 -373c72 0 142 29.667 210 89z" />
    <glyph glyph-name="e" unicode="e" horiz-adv-x="1172" 
d="M1128 501h-749.999c7.33301 -54.667 24 -101.667 50 -141c62 -94 165.667 -141 311 -141c150 0 268.667 27.333 356 82v-236c-136.667 -54 -277.334 -81 -422.001 -81c-236 0 -407 71.667 -513 215c-73.333 99.333 -110 220.333 -110 363c0 152 32.333 281 97 387
c93.333 154 244.333 231 453 231c352 0 528 -226.333 528 -679zM815.001 696c-6.66699 186.667 -78.334 280 -215.001 280c-145.333 0 -220.666 -93.333 -225.999 -280h441z" />
    <glyph glyph-name="f" unicode="f" horiz-adv-x="785" 
d="M775 1326c-32.667 30.667 -78.666 46.001 -137.999 46.001c-40.667 0 -73.834 -12.333 -99.501 -37s-38.5 -57.334 -38.5 -98.001v-84h266v-194h-262v-959h-317v959h-182l52 194h130v73c0 113.333 32.667 201.333 98 264c62.667 59.333 147.667 89 255 89
c80 0 158.667 -13 236 -39v-214z" />
    <glyph glyph-name="g" unicode="g" horiz-adv-x="1195" 
d="M1266 1170l-50.002 -258.999l-109 -6c12.667 -38 19 -78.667 19 -122c0 -108 -45.333 -198.333 -136 -271c-94 -75.333 -216.333 -113 -367 -113c-51.333 0 -103.666 3.33301 -156.999 10c-32.667 -2.66699 -59 -16.334 -79 -41.001c-17.333 -20.667 -26 -41.667 -26 -63
c0 -36 31.667 -58 95 -66c16.667 -2 71.334 -3 164.001 -3c354 0 531 -105.333 531 -316c0 -110 -57 -194.333 -171 -253c-98.667 -50 -224 -75 -376 -75c-168 0 -302.333 25 -403 75s-151 119 -151 207c0 100 50.333 169 151 207
c-100.667 37.333 -151 101.666 -151 192.999c0 54 23.333 100 70 138c42 34.667 92.667 55.334 152 62.001c-108.667 63.333 -163 165 -163 305c0 114.667 39.333 206.667 118 276c89.333 78 221.333 117 396 117c182 0 317 -44 405 -132l48 113zM824.998 779.001
c0 69.333 -11.332 120.667 -33.999 154c-31.333 46.667 -87.333 70 -168 70c-82.667 0 -140.334 -22 -173.001 -66c-25.333 -34 -38 -86.667 -38 -158c0 -136.667 70.333 -205 211 -205c134.667 0 202 68.333 202 205zM832.999 -94.998
c-2 87.333 -78.334 132.332 -229.001 134.999c-49.333 0.666992 -111.333 0.666992 -186 0c-44.667 -38 -67 -81.667 -67 -131c0 -40.667 23.333 -73.5 70 -98.5s107.667 -37.5 183 -37.5c62 0 114.667 11.333 158 34c48.667 24.667 72.334 57.334 71.001 98.001z" />
    <glyph glyph-name="h" unicode="h" horiz-adv-x="1232" 
d="M1141 0h-316.001v681c0 80 -7.66699 135.333 -23 166c-26 52 -79.667 78 -161 78c-133.333 0 -200 -87.667 -200 -263v-662h-318v1558h311v-566c17.333 40 49 77.333 95 112c66.667 50.667 145.334 76 236.001 76c250.667 0 376 -128 376 -384v-796z" />
    <glyph glyph-name="i" unicode="i" horiz-adv-x="501" 
d="M434 1446c0 -41.333 -15.333 -74.667 -46 -100c-32.667 -26.667 -77 -40 -133 -40c-120 0 -180 46.667 -180 140c0 40.667 18.333 73.667 55 99c33.333 22.667 75 34 125 34c52.667 0 95.667 -12.5 129 -37.5s50 -56.833 50 -95.5zM409 -0.000976562h-315v1153h315v-1153
z" />
    <glyph glyph-name="j" unicode="j" horiz-adv-x="529" 
d="M457 1446c0 -41.333 -15.001 -74.667 -45.001 -100c-32 -26.667 -76 -40 -132 -40c-121.333 0 -182 46.667 -182 140c0 40.667 18.667 73.667 56 99c34 22.667 76 34 126 34c52.667 0 95.334 -12.5 128.001 -37.5s49 -56.833 49 -95.5zM433.999 -385.001h-315v1538h315
v-1538z" />
    <glyph glyph-name="k" unicode="k" horiz-adv-x="1164" 
d="M1197 0h-359l-397 618v-618h-316v1558h316v-839l344 434h370l-426 -482z" />
    <glyph glyph-name="l" unicode="l" horiz-adv-x="556" 
d="M434 0h-317v1558h317v-1558z" />
    <glyph glyph-name="m" unicode="m" horiz-adv-x="1842" 
d="M1767 0l-317.002 0.000976562v681c0 88 -12 150 -36 186c-26 38.667 -72.667 58 -140 58c-85.333 0 -139.666 -31.333 -162.999 -94c-9.33301 -26 -14 -82.333 -14 -169v-662h-316v681c0 86.667 -11.333 147.667 -34 183c-26 40.667 -73.667 61 -143 61
c-63.333 0 -111.666 -31 -144.999 -93c-26 -48.667 -39 -105.334 -39 -170.001v-662h-313v1153h309v-161c60 125.333 170 188 330 188c174.667 0 281.667 -66.667 321 -200c73.333 133.333 187 200 341 200c119.333 0 210 -35.333 272 -106c58 -66 87 -158.667 87 -278v-796
z" />
    <glyph glyph-name="n" unicode="n" horiz-adv-x="1209" 
d="M1122 0l-316.001 0.000976562v681c0 80 -7.66699 135.333 -23 166c-25.333 52 -78.666 78 -159.999 78c-62.667 0 -113.334 -30 -152.001 -90c-32.667 -51.333 -49 -109 -49 -173v-662h-315v1153h311v-161c15.333 39.333 46 76.666 92 111.999
c66.667 50.667 145.334 76 236.001 76c250.667 0 376 -128 376 -384v-796z" />
    <glyph glyph-name="o" unicode="o" horiz-adv-x="1232" 
d="M1182 574c0 -167.333 -50.001 -307 -150.001 -419c-105.333 -116.667 -241.666 -175 -408.999 -175c-380.667 0 -571 196.667 -571 590c0 176 44 317.333 132 424c100 121.333 246.333 182 439 182c190.667 0 334.667 -60.667 432 -182
c84.667 -105.333 127 -245.333 127 -420zM847.999 570c0 118.667 -12.334 206.999 -37.001 264.999c-35.333 80 -98 120 -188 120c-91.333 0 -155.333 -38 -192 -114c-28 -59.333 -42 -149.666 -42 -270.999c0 -128 18.333 -219.833 55 -275.5s96.334 -83.5 179.001 -83.5
c150 0 225 119.667 225 359z" />
    <glyph glyph-name="p" unicode="p" horiz-adv-x="1270" 
d="M1209 587c0 -163.333 -37.667 -300.999 -113 -412.999c-84.667 -124 -200 -186 -346 -186c-123.333 0 -232 34.667 -326 104v-477h-307v1538h317v-136c20 43.333 59.667 81.666 119 114.999c62 34.667 125.667 52 191 52c125.333 0 229 -41 311 -123
c102.667 -103.333 154 -261.333 154 -474zM875 591.001c0 90.667 -17.333 165.667 -52 225c-42 71.333 -103.333 106.333 -184 105c-136.667 -1.33301 -205 -86.333 -205 -255v-384c74.667 -46 143 -69 205 -69c157.333 0 236 126 236 378z" />
    <glyph glyph-name="q" unicode="q" horiz-adv-x="1260" 
d="M1147 -385l-309.002 -0.000976562v479c-89.333 -70.667 -196.666 -106 -321.999 -106c-140.667 0 -253.667 60 -339 180c-80.667 112.667 -121 252.334 -121 419.001c0 156 31.333 287 94 393c80 136 200.667 204 362 204c140.667 0 352.334 -10.333 635.001 -31v-1538z
M832.998 289.999l-0.000976562 653.999c-73.333 15.333 -146.333 23 -219 23c-73.333 0 -129.666 -34.333 -168.999 -103c-37.333 -66 -56 -157 -56 -273c0 -121.333 22 -215.666 66 -282.999c41.333 -63.333 97.333 -95 168 -95c62 0 132 25.667 210 77z" />
    <glyph glyph-name="r" unicode="r" horiz-adv-x="869" 
d="M854 833c-64.667 43.333 -131.334 65 -200.001 65c-158.667 0 -238 -100.333 -238 -301v-597h-318v1153h314v-165c44.667 125.333 125.334 188 242.001 188c81.333 0 148 -19.333 200 -58v-285z" />
    <glyph glyph-name="s" unicode="s" horiz-adv-x="927" 
d="M900 332c0 -112.667 -46.9971 -201.334 -140.997 -266.001c-84.667 -57.333 -192 -86 -322 -86c-178.667 0 -313.334 21.333 -404.001 64v257c123.333 -70 235.666 -105 336.999 -105c126.667 0 190 45.333 190 136c0 53.333 -44 101 -132 143
c-146.667 69.333 -228.334 110.333 -245.001 123c-88 62.667 -131.667 146.667 -131 252c0.666992 102 42.667 183 126 243c76.667 55.333 172.667 83 288 83c142 0 255.333 -26.333 340 -79l42 -218c-73.333 61.333 -172.333 92 -297 92c-115.333 0 -173 -43.667 -173 -131
c0 -50 45 -95.333 135 -136c146.667 -66 230.667 -106.667 252 -122c90 -63.333 135 -146.666 135 -249.999z" />
    <glyph glyph-name="t" unicode="t" horiz-adv-x="785" 
d="M792 228l-0.000976562 -222c-83.333 -14.667 -167.666 -22 -252.999 -22c-108 0 -194 29.333 -258 88c-66 62 -99 148.667 -99 260v627h-183l45 194h142v270h311v-270h280v-194h-274v-610c0 -41.333 13.167 -74.333 39.5 -99s60.5 -37 102.5 -37
c57.333 0 106.333 5 147 15z" />
    <glyph glyph-name="u" unicode="u" horiz-adv-x="1203" 
d="M1111 0l-295.998 -0.000976562v157c-69.333 -115.333 -184.333 -173 -345 -173c-252 0 -378 147.333 -378 442v727h317v-727c0 -75.333 11.333 -130.666 34 -165.999c27.333 -42.667 74.666 -64 141.999 -64c55.333 0 103.666 15.667 144.999 47
c45.333 34 68 77.667 68 131v779h313v-1153z" />
    <glyph glyph-name="v" unicode="v" horiz-adv-x="1130" 
d="M1124 1153l-391 -1156h-336l-397 1156h315l251 -821l242 821h316z" />
    <glyph glyph-name="w" unicode="w" horiz-adv-x="1732" 
d="M1725 1153l-340 -1153h-330l-186 836l-186 -836h-332l-345 1153h318l196 -817l186 817h334l180 -817l190 817h315z" />
    <glyph glyph-name="x" unicode="x" horiz-adv-x="1126" 
d="M1128 0h-324l-234 370l-240 -370h-326l393 579l-393 574h326l240 -365l234 365h324l-386 -574z" />
    <glyph glyph-name="y" unicode="y" horiz-adv-x="1130" 
d="M1126 1153l-282 -823c-80 -232 -151 -470.333 -213 -715h-316l138 398h-46l-405 1140h316l248 -817l245 817h315z" />
    <glyph glyph-name="z" unicode="z" horiz-adv-x="1015" 
d="M1013 0h-1037l578 955h-546l48 198h953l-575 -944h579v-209z" />
    <glyph glyph-name="braceleft" unicode="{" horiz-adv-x="681" 
d="M585 -260l-148 -0.00292969c-111.333 0 -185.5 16.333 -222.5 49s-55.5 96.334 -55.5 191.001v482c0 39.333 -3.66699 63 -11 71c-22 30.667 -71.667 61.334 -149 92.001v133c22.667 9.33301 43.334 18.333 62.001 27c46 22.667 77.333 44.334 94 65.001
c2.66699 6 4 28.333 4 67v485c0 93.333 18.667 157.333 56 192c33.333 30.667 107.333 46 222 46h144v-134h-73c-28 0 -48.333 -5.5 -61 -16.5s-19 -36.167 -19 -75.5v-578c0 -32 -3.33301 -55 -10 -69c-16.667 -33.333 -97.667 -53 -243 -59v-29l119 -23
c79.333 -17.333 120.666 -30 123.999 -38c6.66699 -12 10 -33.333 10 -64v-580c0 -34 5 -57 15 -69c11.333 -14 33 -21 65 -21h77v-144z" />
    <glyph glyph-name="bar" unicode="|" horiz-adv-x="533" 
d="M318 -135h-147v1775h147v-1775z" />
    <glyph glyph-name="braceright" unicode="}" horiz-adv-x="685" 
d="M683 625c-22.667 -9.33301 -43.332 -18.665 -61.999 -27.998c-44 -22 -73.333 -43.333 -88 -64c-7.33301 -8 -11 -31.667 -11 -71v-482c0 -94.667 -18.5 -158.334 -55.5 -191.001s-111.167 -49 -222.5 -49h-148v144h77c32 0 53.667 7 65 21c10 12 15 35 15 69v580
c0 30.667 3.33301 52 10 64c14 32 95 52.333 243 61v29c-44 4.66699 -82.333 10 -115 16c-78 13.333 -120.5 27.333 -127.5 42s-10.5 38 -10.5 70v578c0 42 -8 68.333 -24 79c-12.667 8.66699 -31.334 13 -56.001 13h-73v134h144c114.667 0 188.667 -15.333 222 -46
c37.333 -34.667 56 -98.667 56 -192v-485c0 -38.667 1.33301 -61 4 -67c24.667 -30.667 77 -61.334 157 -92.001v-133z" />
    <glyph glyph-name="asciitilde" unicode="~" horiz-adv-x="1130" 
d="M1026 551c-74.667 -73.333 -172.337 -110 -293.004 -110c-44.667 0 -101 26.5 -169 79.5s-128 79.5 -180 79.5c-101.333 0 -191.666 -30 -270.999 -90v173c94.667 61.333 196.334 92 305.001 92c64 0 128.833 -26.167 194.5 -78.5s124.834 -78.5 177.501 -78.5
c92.667 0 171.334 30 236.001 90v-157z" />
    <glyph glyph-name="c143" horiz-adv-x="1145" 
d="M1149 286v-286h-1173l621 1272h-589l71 280h1030l-618 -1266h658zM422 1638h217l360 292h-360z" />
    <glyph glyph-name="nonbreakingspace" unicode="&#xa0;" horiz-adv-x="744" 
 />
    <glyph glyph-name="cent" unicode="&#xa2;" 
 />
    <glyph glyph-name="sterling" unicode="&#xa3;" horiz-adv-x="1099" 
d="M1101 295l-75 -295h-894l2 514l-105 -63v209l105 67l-2 825h367l2 -599l255 160v-213l-255 -161l-2 -444h602z" />
    <glyph glyph-name="currency" unicode="&#xa4;" 
 />
    <glyph glyph-name="yen" unicode="&#xa5;" horiz-adv-x="1443" 
d="M1371 -378c-76 -44.667 -158.667 -67.3311 -248 -67.998c-62 -0.666992 -111.667 16.666 -149 51.999c-39.333 37.333 -60 89.666 -62 156.999c-2.66699 72 39.333 153.667 126 245l-75 276h-474l-82 -284h-380l512 1552h378l514 -1552h-256
c-71.333 -88.667 -105 -148 -101 -178c8.66699 -67.333 47 -100.333 115 -99c50 1.33301 110 22.333 180 63zM905 541.003l-176 639l-178 -639h354z" />
    <glyph glyph-name="section" unicode="&#xa7;" 
 />
    <glyph glyph-name="dieresis" unicode="&#xa8;" 
 />
    <glyph glyph-name="copyright" unicode="&#xa9;" 
 />
    <glyph glyph-name="guillemotleft" unicode="&#xab;" 
 />
    <glyph glyph-name="logicalnot" unicode="&#xac;" 
 />
    <glyph glyph-name="registered" unicode="&#xae;" 
 />
    <glyph glyph-name="macron" unicode="&#xaf;" horiz-adv-x="1145" 
d="M1149 286v-286h-1173l621 1272h-589l71 280h1030l-618 -1266h658zM455 1731c0 30 13.667 55.667 41 77s60.333 32 99 32s71.667 -10.667 99 -32s41 -47 41 -77c0 -30.667 -13.667 -56.667 -41 -78s-60.333 -32 -99 -32s-71.667 10.667 -99 32s-41 47.333 -41 78z" />
    <glyph glyph-name="macron" unicode="&#x2c9;" horiz-adv-x="1145" 
d="M1149 286v-286h-1173l621 1272h-589l71 280h1030l-618 -1266h658zM455 1731c0 30 13.667 55.667 41 77s60.333 32 99 32s71.667 -10.667 99 -32s41 -47 41 -77c0 -30.667 -13.667 -56.667 -41 -78s-60.333 -32 -99 -32s-71.667 10.667 -99 32s-41 47.333 -41 78z" />
    <glyph glyph-name="degree" unicode="&#xb0;" 
 />
    <glyph glyph-name="plusminus" unicode="&#xb1;" 
 />
    <glyph glyph-name="twosuperior" unicode="&#xb2;" 
 />
    <glyph glyph-name="threesuperior" unicode="&#xb3;" horiz-adv-x="633" 
d="M602 806l-147 -96v-710h-317v514l-105 -63v209l105 67v831h317v-635l147 96v-213z" />
    <glyph glyph-name="acute" unicode="&#xb4;" 
 />
    <glyph glyph-name="mu" unicode="&#xb5;" 
 />
    <glyph glyph-name="mu" unicode="&#x3bc;" 
 />
    <glyph glyph-name="paragraph" unicode="&#xb6;" 
 />
    <glyph glyph-name="periodcentered" unicode="&#xb7;" 
 />
    <glyph glyph-name="periodcentered" unicode="&#x2219;" 
 />
    <glyph glyph-name="onesuperior" unicode="&#xb9;" horiz-adv-x="1149" 
d="M1101 -378c-76 -44.667 -158.663 -67.3291 -247.996 -67.9961c-62 -0.666992 -111.667 16.666 -149 51.999c-39.333 37.333 -60 89.666 -62 156.999c-2.66699 73.333 41.666 157.333 132.999 252v89c-108.667 -80 -235.334 -120 -380.001 -120
c-121.333 0 -214 40.333 -278 121c-50 63.333 -75 137.666 -75 222.999c0 118 48.333 212.333 145 283c105.333 77.333 254.666 116 447.999 116c40 0 79.667 -2.66699 119 -8v48c0 62 -10.667 106.667 -32 134c-41.333 52.667 -125.333 79 -252 79
c-129.333 0 -237.333 -37.667 -324 -113v242c129.333 47.333 263.666 71 402.999 71c192.667 0 328.667 -36.667 408 -110c72 -66.667 108 -175.334 108 -326.001v-744h-160c-71.333 -88.667 -105 -148 -101 -178c8.66699 -67.333 47 -100.333 115 -99
c50 1.33301 110 22.333 180 63zM750.004 269.005l-0.000976562 265.999c-39.333 9.33301 -77.666 14 -114.999 14c-83.333 0 -151.5 -18.167 -204.5 -54.5s-79.5 -82.166 -79.5 -137.499c0 -53.333 18.667 -95 56 -125c34 -26.667 78 -40 132 -40
c68.667 0 139 25.667 211 77z" />
    <glyph glyph-name="ordmasculine" unicode="&#xba;" 
 />
    <glyph glyph-name="guillemotright" unicode="&#xbb;" 
 />
    <glyph glyph-name="onequarter" unicode="&#xbc;" 
 />
    <glyph glyph-name="onehalf" unicode="&#xbd;" 
 />
    <glyph glyph-name="threequarters" unicode="&#xbe;" 
 />
    <glyph glyph-name="questiondown" unicode="&#xbf;" horiz-adv-x="1015" 
d="M1013 0h-1037l578 955h-546l48 198h953l-575 -944h579v-209zM395 1361c0 30 13.667 55.833 41 77.5s60.333 32.5 99 32.5s71.667 -10.833 99 -32.5s41 -47.5 41 -77.5s-13.667 -55.833 -41 -77.5s-60.333 -32.5 -99 -32.5s-71.667 10.833 -99 32.5s-41 47.5 -41 77.5z
" />
    <glyph glyph-name="Agrave" unicode="&#xc0;" 
 />
    <glyph glyph-name="Aacute" unicode="&#xc1;" 
 />
    <glyph glyph-name="Acircumflex" unicode="&#xc2;" 
 />
    <glyph glyph-name="Atilde" unicode="&#xc3;" 
 />
    <glyph glyph-name="Adieresis" unicode="&#xc4;" 
 />
    <glyph glyph-name="Aring" unicode="&#xc5;" 
 />
    <glyph glyph-name="AE" unicode="&#xc6;" horiz-adv-x="1333" 
d="M1301 36c-164 -41.333 -316.999 -62 -458.999 -62c-255.333 0 -444.666 77 -567.999 231c-107.333 136 -161 326 -161 570c0 203.333 52.667 376.333 158 519c136 184.667 340.333 277 613 277c112 0 206 -20.333 282 -61l73 -273
c-82.667 42.667 -182.334 64 -299.001 64c-139.333 0 -248 -46.5 -326 -139.5s-117 -221.833 -117 -386.5c0 -171.333 36.333 -299.333 109 -384c77.333 -89.333 199.666 -134 366.999 -134c98.667 0 208 27.667 328 83v-304zM568.001 1638h217l360 292h-360z" />
    <glyph glyph-name="Ccedilla" unicode="&#xc7;" 
 />
    <glyph glyph-name="Ecircumflex" unicode="&#xca;" horiz-adv-x="1180" 
d="M1161 -378c-76 -44.667 -158.667 -67.332 -248 -67.999c-62 -0.666992 -111.667 16.666 -149 51.999c-39.333 37.333 -60 89.666 -62 156.999c-2.66699 70.667 37 149.667 119 237h-685v1552h919l71 -276h-623v-346h541v-276h-541v-376h652v-278
c-117.333 0 -156.333 0.333008 -117 1c-41.333 -0.666992 -69.333 -6 -84 -16c-64 -79.333 -94 -133.666 -90 -162.999c8.66699 -67.333 47 -100.333 115 -99c50 1.33301 110 22.333 180 63z" />
    <glyph glyph-name="Edieresis" unicode="&#xcb;" 
 />
    <glyph glyph-name="Igrave" unicode="&#xcc;" 
 />
    <glyph glyph-name="Icircumflex" unicode="&#xce;" 
 />
    <glyph glyph-name="Idieresis" unicode="&#xcf;" 
 />
    <glyph glyph-name="Ntilde" unicode="&#xd1;" horiz-adv-x="1521" 
d="M1389 0h-311l-581 884v-884h-361v1552h317l577 -869v869h359v-1552zM610 1638h217l360 292h-360z" />
    <glyph glyph-name="Oacute" unicode="&#xd3;" horiz-adv-x="1623" 
d="M1523 779c-1.33301 -234.667 -58.332 -423.667 -170.999 -567c-124.667 -158.667 -301.667 -238 -531 -238c-468.667 0 -705.334 268.333 -710.001 805c-2.66699 236 50 423 158 561c122.667 156.667 306.667 235 552 235c248 0 431.667 -79.333 551 -238
c102 -136 152.333 -322 151 -558zM1141 775c0 166 -17.666 288.334 -52.999 367.001c-48.667 108 -136.334 162.667 -263.001 164c-135.333 0.666992 -227.333 -48.333 -276 -147c-37.333 -74.667 -56 -201.334 -56 -380.001c0 -185.333 24.333 -318.333 73 -399
c50.667 -83.333 135.667 -124.333 255 -123c116 0.666992 199.667 46.667 251 138c46 82 69 208.667 69 380zM652.002 1638h217l359 292h-359z" />
    <glyph glyph-name="Ocircumflex" unicode="&#xd4;" 
 />
    <glyph glyph-name="Oslash" unicode="&#xd8;" 
 />
    <glyph glyph-name="Ugrave" unicode="&#xd9;" 
 />
    <glyph glyph-name="Uacute" unicode="&#xda;" 
 />
    <glyph glyph-name="Udieresis" unicode="&#xdc;" 
 />
    <glyph glyph-name="Thorn" unicode="&#xde;" 
 />
    <glyph glyph-name="germandbls" unicode="&#xdf;" 
 />
    <glyph glyph-name="aacute" unicode="&#xe1;" 
 />
    <glyph glyph-name="acircumflex" unicode="&#xe2;" 
 />
    <glyph glyph-name="adieresis" unicode="&#xe4;" 
 />
    <glyph glyph-name="ae" unicode="&#xe6;" horiz-adv-x="1015" 
d="M996 48c-140 -42.667 -262.332 -64.001 -366.999 -64.001c-164 0 -298 45.333 -402 136c-119.333 104.667 -179 256 -179 454c0 164 46.667 302.333 140 415c106 127.333 253 191 441 191c135.333 0 235.666 -26.333 300.999 -79l37 -234
c-61.333 58.667 -145.666 88 -252.999 88c-94 0 -169 -28 -225 -84c-64 -64.667 -96 -160.667 -96 -288c0 -249.333 110 -372.666 330 -369.999c69.333 0.666992 132 13.667 188 39c39.333 17.333 67.666 36.333 84.999 57v-261zM409.001 1237h218l359 292h-359z" />
    <glyph glyph-name="ccedilla" unicode="&#xe7;" 
 />
    <glyph glyph-name="eacute" unicode="&#xe9;" 
 />
    <glyph glyph-name="ecircumflex" unicode="&#xea;" horiz-adv-x="1172" 
d="M1121 -378c-76 -44.667 -158.668 -67.3311 -248.001 -67.998c-62 -0.666992 -111.667 16.666 -149 51.999c-39.333 37.333 -60 89.666 -62 156.999c-2 68 34 143.333 108 226c-33.333 -3.33301 -65.666 -5 -96.999 -5c-236 0 -407 71.667 -513 215
c-73.333 99.333 -110 220.333 -110 363c0 152 32.333 281 97 387c93.333 154 244.333 231 453 231c352 0 528 -226.333 528 -679h-750c7.33301 -54.667 24 -101.667 50 -141c62 -94 165.667 -141 311 -141c150 0 268.667 27.333 356 82v-236
c-42.667 -13.333 -100.334 -38.333 -173.001 -75c-22.667 -18 -45 -44.667 -67 -80c-23.333 -38 -33.666 -67.333 -30.999 -88c8.66699 -67.333 47 -100.333 115 -99c50 1.33301 110 22.333 180 63zM814.999 696.003c-6.66699 186.667 -78.334 280 -215.001 280
c-145.333 0 -220.666 -93.333 -225.999 -280h441z" />
    <glyph glyph-name="edieresis" unicode="&#xeb;" 
 />
    <glyph glyph-name="igrave" unicode="&#xec;" 
 />
    <glyph glyph-name="iacute" unicode="&#xed;" 
 />
    <glyph glyph-name="icircumflex" unicode="&#xee;" 
 />
    <glyph glyph-name="eth" unicode="&#xf0;" 
 />
    <glyph glyph-name="ntilde" unicode="&#xf1;" horiz-adv-x="1209" 
d="M1122 0l-316.001 0.000976562v681c0 80 -7.66699 135.333 -23 166c-25.333 52 -78.666 78 -159.999 78c-62.667 0 -113.334 -30 -152.001 -90c-32.667 -51.333 -49 -109 -49 -173v-662h-315v1153h311v-161c15.333 39.333 46 76.666 92 111.999
c66.667 50.667 145.334 76 236.001 76c250.667 0 376 -128 376 -384v-796zM429.999 1237h218l359 292h-359z" />
    <glyph glyph-name="oacute" unicode="&#xf3;" horiz-adv-x="1232" 
d="M1182 574c0 -167.333 -50.001 -307 -150.001 -419c-105.333 -116.667 -241.666 -175 -408.999 -175c-380.667 0 -571 196.667 -571 590c0 176 44 317.333 132 424c100 121.333 246.333 182 439 182c190.667 0 334.667 -60.667 432 -182
c84.667 -105.333 127 -245.333 127 -420zM847.999 570c0 118.667 -12.334 206.999 -37.001 264.999c-35.333 80 -98 120 -188 120c-91.333 0 -155.333 -38 -192 -114c-28 -59.333 -42 -149.666 -42 -270.999c0 -128 18.333 -219.833 55 -275.5s96.334 -83.5 179.001 -83.5
c150 0 225 119.667 225 359zM450.998 1237h217l360 292h-360z" />
    <glyph glyph-name="ocircumflex" unicode="&#xf4;" 
 />
    <glyph glyph-name="odieresis" unicode="&#xf6;" 
 />
    <glyph glyph-name="divide" unicode="&#xf7;" 
 />
    <glyph glyph-name="Aogonek" unicode="&#x104;" horiz-adv-x="1443" 
d="M1371 -378c-76 -44.667 -158.667 -67.3311 -248 -67.998c-62 -0.666992 -111.667 16.666 -149 51.999c-39.333 37.333 -60 89.666 -62 156.999c-2.66699 72 39.333 153.667 126 245l-75 276h-474l-82 -284h-380l512 1552h378l514 -1552h-256
c-71.333 -88.667 -105 -148 -101 -178c8.66699 -67.333 47 -100.333 115 -99c50 1.33301 110 22.333 180 63zM905 541.003l-176 639l-178 -639h354z" />
    <glyph glyph-name="aogonek" unicode="&#x105;" horiz-adv-x="1149" 
d="M1101 -378c-76 -44.667 -158.663 -67.3291 -247.996 -67.9961c-62 -0.666992 -111.667 16.666 -149 51.999c-39.333 37.333 -60 89.666 -62 156.999c-2.66699 73.333 41.666 157.333 132.999 252v89c-108.667 -80 -235.334 -120 -380.001 -120
c-121.333 0 -214 40.333 -278 121c-50 63.333 -75 137.666 -75 222.999c0 118 48.333 212.333 145 283c105.333 77.333 254.666 116 447.999 116c40 0 79.667 -2.66699 119 -8v48c0 62 -10.667 106.667 -32 134c-41.333 52.667 -125.333 79 -252 79
c-129.333 0 -237.333 -37.667 -324 -113v242c129.333 47.333 263.666 71 402.999 71c192.667 0 328.667 -36.667 408 -110c72 -66.667 108 -175.334 108 -326.001v-744h-160c-71.333 -88.667 -105 -148 -101 -178c8.66699 -67.333 47 -100.333 115 -99
c50 1.33301 110 22.333 180 63zM750.004 269.005l-0.000976562 265.999c-39.333 9.33301 -77.666 14 -114.999 14c-83.333 0 -151.5 -18.167 -204.5 -54.5s-79.5 -82.166 -79.5 -137.499c0 -53.333 18.667 -95 56 -125c34 -26.667 78 -40 132 -40
c68.667 0 139 25.667 211 77z" />
    <glyph glyph-name="Cacute" unicode="&#x106;" horiz-adv-x="1333" 
d="M1301 36c-164 -41.333 -316.999 -62 -458.999 -62c-255.333 0 -444.666 77 -567.999 231c-107.333 136 -161 326 -161 570c0 203.333 52.667 376.333 158 519c136 184.667 340.333 277 613 277c112 0 206 -20.333 282 -61l73 -273
c-82.667 42.667 -182.334 64 -299.001 64c-139.333 0 -248 -46.5 -326 -139.5s-117 -221.833 -117 -386.5c0 -171.333 36.333 -299.333 109 -384c77.333 -89.333 199.666 -134 366.999 -134c98.667 0 208 27.667 328 83v-304zM568.001 1638h217l360 292h-360z" />
    <glyph glyph-name="cacute" unicode="&#x107;" horiz-adv-x="1015" 
d="M996 48c-140 -42.667 -262.332 -64.001 -366.999 -64.001c-164 0 -298 45.333 -402 136c-119.333 104.667 -179 256 -179 454c0 164 46.667 302.333 140 415c106 127.333 253 191 441 191c135.333 0 235.666 -26.333 300.999 -79l37 -234
c-61.333 58.667 -145.666 88 -252.999 88c-94 0 -169 -28 -225 -84c-64 -64.667 -96 -160.667 -96 -288c0 -249.333 110 -372.666 330 -369.999c69.333 0.666992 132 13.667 188 39c39.333 17.333 67.666 36.333 84.999 57v-261zM409.001 1237h218l359 292h-359z" />
    <glyph glyph-name="Eogonek" unicode="&#x118;" horiz-adv-x="1180" 
d="M1161 -378c-76 -44.667 -158.667 -67.332 -248 -67.999c-62 -0.666992 -111.667 16.666 -149 51.999c-39.333 37.333 -60 89.666 -62 156.999c-2.66699 70.667 37 149.667 119 237h-685v1552h919l71 -276h-623v-346h541v-276h-541v-376h652v-278
c-117.333 0 -156.333 0.333008 -117 1c-41.333 -0.666992 -69.333 -6 -84 -16c-64 -79.333 -94 -133.666 -90 -162.999c8.66699 -67.333 47 -100.333 115 -99c50 1.33301 110 22.333 180 63z" />
    <glyph glyph-name="eogonek" unicode="&#x119;" horiz-adv-x="1172" 
d="M1121 -378c-76 -44.667 -158.668 -67.3311 -248.001 -67.998c-62 -0.666992 -111.667 16.666 -149 51.999c-39.333 37.333 -60 89.666 -62 156.999c-2 68 34 143.333 108 226c-33.333 -3.33301 -65.666 -5 -96.999 -5c-236 0 -407 71.667 -513 215
c-73.333 99.333 -110 220.333 -110 363c0 152 32.333 281 97 387c93.333 154 244.333 231 453 231c352 0 528 -226.333 528 -679h-750c7.33301 -54.667 24 -101.667 50 -141c62 -94 165.667 -141 311 -141c150 0 268.667 27.333 356 82v-236
c-42.667 -13.333 -100.334 -38.333 -173.001 -75c-22.667 -18 -45 -44.667 -67 -80c-23.333 -38 -33.666 -67.333 -30.999 -88c8.66699 -67.333 47 -100.333 115 -99c50 1.33301 110 22.333 180 63zM814.999 696.003c-6.66699 186.667 -78.334 280 -215.001 280
c-145.333 0 -220.666 -93.333 -225.999 -280h441z" />
    <glyph glyph-name="Lslash" unicode="&#x141;" horiz-adv-x="1099" 
d="M1101 295l-75 -295h-894l2 514l-105 -63v209l105 67l-2 825h367l2 -599l255 160v-213l-255 -161l-2 -444h602z" />
    <glyph glyph-name="lslash" unicode="&#x142;" horiz-adv-x="633" 
d="M602 806l-147 -96v-710h-317v514l-105 -63v209l105 67v831h317v-635l147 96v-213z" />
    <glyph glyph-name="Nacute" unicode="&#x143;" horiz-adv-x="1521" 
d="M1389 0h-311l-581 884v-884h-361v1552h317l577 -869v869h359v-1552zM610 1638h217l360 292h-360z" />
    <glyph glyph-name="nacute" unicode="&#x144;" horiz-adv-x="1209" 
d="M1122 0l-316.001 0.000976562v681c0 80 -7.66699 135.333 -23 166c-25.333 52 -78.666 78 -159.999 78c-62.667 0 -113.334 -30 -152.001 -90c-32.667 -51.333 -49 -109 -49 -173v-662h-315v1153h311v-161c15.333 39.333 46 76.666 92 111.999
c66.667 50.667 145.334 76 236.001 76c250.667 0 376 -128 376 -384v-796zM429.999 1237h218l359 292h-359z" />
    <glyph glyph-name="OE" unicode="&#x152;" horiz-adv-x="1237" 
d="M1170 449c0 -168 -71.002 -293.668 -213.002 -377.001c-112 -65.333 -250 -98 -414 -98c-161.333 0 -318.666 20.667 -471.999 62v277c128.667 -48.667 260.334 -73 395.001 -73c207.333 0 311 67 311 201c0 78 -59.667 149 -179 213l-332 178
c-118.667 86 -178 194.333 -178 325c0 122 53.333 222 160 300c105.333 76 239.333 114 402 114c75.333 0 144 -5.33301 206 -16c43.333 -7.33301 82 -17 116 -29c29.333 -10.667 42.333 -16 39 -16l67 -269c-104.667 48.667 -210.667 73 -318 73
c-196 0 -294 -59.333 -294 -178c0 -65.333 60.667 -127.666 182 -186.999c202 -98 315 -155.667 339 -173c122 -86.667 183 -195.667 183 -327zM421.998 1638h217l360 292h-360z" />
    <glyph glyph-name="oe" unicode="&#x153;" horiz-adv-x="927" 
d="M900 332c0 -112.667 -46.9971 -201.334 -140.997 -266.001c-84.667 -57.333 -192 -86 -322 -86c-178.667 0 -313.334 21.333 -404.001 64v257c123.333 -70 235.666 -105 336.999 -105c126.667 0 190 45.333 190 136c0 53.333 -44 101 -132 143
c-146.667 69.333 -228.334 110.333 -245.001 123c-88 62.667 -131.667 146.667 -131 252c0.666992 102 42.667 183 126 243c76.667 55.333 172.667 83 288 83c142 0 255.333 -26.333 340 -79l42 -218c-73.333 61.333 -172.333 92 -297 92c-115.333 0 -173 -43.667 -173 -131
c0 -50 45 -95.333 135 -136c146.667 -66 230.667 -106.667 252 -122c90 -63.333 135 -146.666 135 -249.999zM263.003 1237h217l360 292h-360z" />
    <glyph glyph-name="Sacute" unicode="&#x15a;" horiz-adv-x="1237" 
d="M1170 449c0 -168 -71.002 -293.668 -213.002 -377.001c-112 -65.333 -250 -98 -414 -98c-161.333 0 -318.666 20.667 -471.999 62v277c128.667 -48.667 260.334 -73 395.001 -73c207.333 0 311 67 311 201c0 78 -59.667 149 -179 213l-332 178
c-118.667 86 -178 194.333 -178 325c0 122 53.333 222 160 300c105.333 76 239.333 114 402 114c75.333 0 144 -5.33301 206 -16c43.333 -7.33301 82 -17 116 -29c29.333 -10.667 42.333 -16 39 -16l67 -269c-104.667 48.667 -210.667 73 -318 73
c-196 0 -294 -59.333 -294 -178c0 -65.333 60.667 -127.666 182 -186.999c202 -98 315 -155.667 339 -173c122 -86.667 183 -195.667 183 -327zM421.998 1638h217l360 292h-360z" />
    <glyph glyph-name="sacute" unicode="&#x15b;" horiz-adv-x="927" 
d="M900 332c0 -112.667 -46.9971 -201.334 -140.997 -266.001c-84.667 -57.333 -192 -86 -322 -86c-178.667 0 -313.334 21.333 -404.001 64v257c123.333 -70 235.666 -105 336.999 -105c126.667 0 190 45.333 190 136c0 53.333 -44 101 -132 143
c-146.667 69.333 -228.334 110.333 -245.001 123c-88 62.667 -131.667 146.667 -131 252c0.666992 102 42.667 183 126 243c76.667 55.333 172.667 83 288 83c142 0 255.333 -26.333 340 -79l42 -218c-73.333 61.333 -172.333 92 -297 92c-115.333 0 -173 -43.667 -173 -131
c0 -50 45 -95.333 135 -136c146.667 -66 230.667 -106.667 252 -122c90 -63.333 135 -146.666 135 -249.999zM263.003 1237h217l360 292h-360z" />
    <glyph glyph-name="Ydieresis" unicode="&#x178;" horiz-adv-x="1015" 
d="M1013 0h-1037l578 955h-546l48 198h953l-575 -944h579v-209zM326 1237h217l359 292h-359z" />
    <glyph glyph-name="Zacute" unicode="&#x179;" horiz-adv-x="1145" 
d="M1149 286v-286h-1173l621 1272h-589l71 280h1030l-618 -1266h658zM422 1638h217l360 292h-360z" />
    <glyph glyph-name="zacute" unicode="&#x17a;" horiz-adv-x="1015" 
d="M1013 0h-1037l578 955h-546l48 198h953l-575 -944h579v-209zM326 1237h217l359 292h-359z" />
    <glyph glyph-name="Zdot" unicode="&#x17b;" horiz-adv-x="1145" 
d="M1149 286v-286h-1173l621 1272h-589l71 280h1030l-618 -1266h658zM455 1731c0 30 13.667 55.667 41 77s60.333 32 99 32s71.667 -10.667 99 -32s41 -47 41 -77c0 -30.667 -13.667 -56.667 -41 -78s-60.333 -32 -99 -32s-71.667 10.667 -99 32s-41 47.333 -41 78z" />
    <glyph glyph-name="zdot" unicode="&#x17c;" horiz-adv-x="1015" 
d="M1013 0h-1037l578 955h-546l48 198h953l-575 -944h579v-209zM395 1361c0 30 13.667 55.833 41 77.5s60.333 32.5 99 32.5s71.667 -10.833 99 -32.5s41 -47.5 41 -77.5s-13.667 -55.833 -41 -77.5s-60.333 -32.5 -99 -32.5s-71.667 10.833 -99 32.5s-41 47.5 -41 77.5z
" />
    <glyph glyph-name="florin" unicode="&#x192;" 
 />
    <glyph glyph-name="endash" unicode="&#x2013;" horiz-adv-x="1306" 
d="M1242 500h-1188v223h1188v-223z" />
    <glyph glyph-name="emdash" unicode="&#x2014;" horiz-adv-x="1828" 
d="M1762 500h-1708v223h1708v-223z" />
    <glyph glyph-name="quoteleft" unicode="&#x2018;" 
 />
    <glyph glyph-name="quoteright" unicode="&#x2019;" 
 />
    <glyph glyph-name="quotesinglbase" unicode="&#x201a;" 
 />
    <glyph glyph-name="quotedblleft" unicode="&#x201c;" 
 />
    <glyph glyph-name="quotedblright" unicode="&#x201d;" horiz-adv-x="1008" 
d="M531 1407c0 -109.333 -103.001 -248.333 -309.001 -417h-159c121.333 120.667 182 212 182 274c-24.667 0 -48.5 15.5 -71.5 46.5s-34.5 63.167 -34.5 96.5c0 47.333 17.833 87.333 53.5 120s78.834 49 129.501 49c60.667 0 110.667 -15.833 150 -47.5
s59 -72.167 59 -121.5zM980.999 1407c0 -109.333 -103.001 -248.333 -309.001 -417h-159c121.333 120.667 182 212 182 274c-24.667 0 -48.5 15.5 -71.5 46.5s-34.5 63.167 -34.5 96.5c0 47.333 17.833 87.333 53.5 120s78.834 49 129.501 49
c60.667 0 110.667 -15.833 150 -47.5s59 -72.167 59 -121.5z" />
    <glyph glyph-name="quotedblbase" unicode="&#x201e;" horiz-adv-x="967" 
d="M476 140c0 -109.333 -103.001 -248.333 -309.001 -417h-159c121.333 120.667 182 212 182 274c-24.667 0 -48.5 15.5 -71.5 46.5s-34.5 63.167 -34.5 96.5c0 47.333 17.833 87.333 53.5 120s78.834 49 129.501 49c60.667 0 110.667 -15.833 150 -47.5
s59 -72.167 59 -121.5zM925.999 140c0 -109.333 -103.001 -248.333 -309.001 -417h-159c121.333 120.667 182 212 182 274c-24.667 0 -48.5 15.5 -71.5 46.5s-34.5 63.167 -34.5 96.5c0 47.333 17.833 87.333 53.5 120s78.834 49 129.501 49
c60.667 0 110.667 -15.833 150 -47.5s59 -72.167 59 -121.5z" />
    <glyph glyph-name="daggerdbl" unicode="&#x2021;" 
 />
    <glyph glyph-name="bullet" unicode="&#x2022;" 
 />
    <glyph glyph-name="ellipsis" unicode="&#x2026;" horiz-adv-x="2146" 
d="M485 140c0 -46.667 -19.1689 -84.667 -57.502 -114s-84.166 -44 -137.499 -44c-59.333 0 -106.833 14.667 -142.5 44s-53.5 67.333 -53.5 114c0 48 17.833 88.167 53.5 120.5s79.167 48.5 130.5 48.5c58.667 0 107.334 -15 146.001 -45c40.667 -32 61 -73.333 61 -124z
M1263 140c0 -46.667 -19.1689 -84.667 -57.502 -114s-84.166 -44 -137.499 -44c-59.333 0 -106.833 14.667 -142.5 44s-53.5 67.333 -53.5 114c0 48 17.833 88.167 53.5 120.5s79.167 48.5 130.5 48.5c58.667 0 107.334 -15 146.001 -45c40.667 -32 61 -73.333 61 -124z
M2041 145c0 -46.667 -19.1689 -84.667 -57.502 -114s-84.166 -44 -137.499 -44c-59.333 0 -106.833 14.667 -142.5 44s-53.5 67.333 -53.5 114c0 48 17.833 88.167 53.5 120.5s79.167 48.5 130.5 48.5c58.667 0 107.334 -15 146.001 -45c40.667 -32 61 -73.333 61 -124z" />
    <glyph glyph-name="perthousand" unicode="&#x2030;" 
 />
    <glyph glyph-name="guilsinglleft" unicode="&#x2039;" 
 />
    <glyph glyph-name="guilsinglright" unicode="&#x203a;" 
 />
    <glyph glyph-name="trademark" unicode="&#x2122;" 
 />
    <glyph glyph-name=".null" horiz-adv-x="0" 
 />
    <glyph glyph-name="nonmarkingreturn" horiz-adv-x="642" 
 />
    <glyph glyph-name="glyph175" 
 />
    <glyph glyph-name="glyph176" 
 />
    <glyph glyph-name="glyph177" 
 />
    <glyph glyph-name="glyph178" 
 />
    <glyph glyph-name="glyph180" 
 />
    <glyph glyph-name="glyph181" 
 />
    <glyph glyph-name="glyph182" 
 />
    <glyph glyph-name="glyph183" 
 />
    <glyph glyph-name="glyph184" 
 />
    <glyph glyph-name="glyph185" horiz-adv-x="1443" 
 />
    <glyph glyph-name="glyph186" 
 />
    <glyph glyph-name="glyph187" 
 />
    <glyph glyph-name="glyph188" 
 />
    <glyph glyph-name="glyph191" 
 />
    <glyph glyph-name="glyph192" 
 />
    <glyph glyph-name="glyph194" 
 />
    <glyph glyph-name="glyph198" 
 />
    <glyph glyph-name="glyph199" 
 />
    <glyph glyph-name="glyph200" 
 />
    <glyph glyph-name="glyph201" 
 />
    <glyph glyph-name="glyph202" 
 />
    <glyph glyph-name="glyph203" 
 />
    <glyph glyph-name="glyph204" 
 />
    <glyph glyph-name="glyph205" 
 />
    <glyph glyph-name="glyph206" 
 />
    <glyph glyph-name="glyph208" 
 />
    <glyph glyph-name="glyph209" 
 />
    <glyph glyph-name="glyph210" 
 />
    <glyph glyph-name="glyph211" 
 />
    <glyph glyph-name="glyph212" 
 />
    <glyph glyph-name="glyph213" 
 />
    <glyph glyph-name=".null" horiz-adv-x="0" 
 />
    </font>
</defs>
</svg>
